<?xml version="1.0" encoding="UTF-8"?><!DOCTYPE svg  PUBLIC '-//W3C//DTD SVG 1.1//EN'  'http://www.w3.org/Graphics/SVG/1.1/DTD/svg11.dtd'><svg version="1.1" xmlns="http://www.w3.org/2000/svg"><defs><font id="a" horiz-adv-x="592"><font-face font-family="AktivGroteskCorpRegular" font-weight="400" ascent="800" bbox="-175 -220 1286 943" cap-height="714" descent="-200" panose-1="2 11 5 4 2 2 2 2 2 4" underline-position="-201" underline-thickness="68" unicode-range="U+0008-FB04" units-per-em="1000" x-height="517"/><missing-glyph d="M50 0v750h400v-750h-400zM400 50v650h-300v-650h300z" horiz-adv-x="500"/><glyph d="M432 448h-81v69h81v45q0 42 12.5 72t34 49.5t50 29t60.5 9.5q23 0 44 -2.5t44 -9.5l-14 -68q-16 5 -30.5 6.5t-28.5 1.5q-35 0 -60 -18.5t-25 -67.5v-47h131v-69h-131v-448h-87v448zM98 448h-81v69h81v45q0 42 12.5 72t34 49.5t50 29t60.5 9.5q23 0 44 -2.5t44 -9.5 l-14 -68q-16 5 -30.5 6.5t-28.5 1.5q-35 0 -60 -18.5t-25 -67.5v-47h131v-69h-131v-448h-87v448z" glyph-name="f_f" horiz-adv-x="668" unicode="ff"/><glyph d="M98 448h-81v69h81v45q0 42 12.5 72t34 49.5t50 29t60.5 9.5q23 0 44 -2.5t44 -9.5l-14 -68q-16 5 -30.5 6.5t-28.5 1.5q-35 0 -60 -18.5t-25 -67.5v-47h131v-69h-131v-448h-87v448zM403 517h87v-517h-87v517zM400 714h93v-101h-93v101z" glyph-name="f_i" horiz-adv-x="560" unicode="fi"/><glyph d="M98 448h-81v69h81v45q0 42 12.5 72t34 49.5t50 29t60.5 9.5q23 0 44 -2.5t44 -9.5l-14 -68q-16 5 -30.5 6.5t-28.5 1.5q-35 0 -60 -18.5t-25 -67.5v-47h131v-69h-131v-448h-87v448zM403 714h87v-714h-87v714z" glyph-name="f_l" horiz-adv-x="560" unicode="fl"/><glyph d="M432 448h-81v69h81v45q0 42 12.5 72t34 49.5t50 29t60.5 9.5q23 0 44 -2.5t44 -9.5l-14 -68q-16 5 -30.5 6.5t-28.5 1.5q-35 0 -60 -18.5t-25 -67.5v-47h131v-69h-131v-448h-87v448zM98 448h-81v69h81v45q0 42 12.5 72t34 49.5t50 29t60.5 9.5q23 0 44 -2.5t44 -9.5 l-14 -68q-16 5 -30.5 6.5t-28.5 1.5q-35 0 -60 -18.5t-25 -67.5v-47h131v-69h-131v-448h-87v448zM737 517h87v-517h-87v517zM734 714h93v-101h-93v101z" glyph-name="f_f_i" horiz-adv-x="894" unicode="ffi"/><glyph d="M432 448h-81v69h81v45q0 42 12.5 72t34 49.5t50 29t60.5 9.5q23 0 44 -2.5t44 -9.5l-14 -68q-16 5 -30.5 6.5t-28.5 1.5q-35 0 -60 -18.5t-25 -67.5v-47h131v-69h-131v-448h-87v448zM98 448h-81v69h81v45q0 42 12.5 72t34 49.5t50 29t60.5 9.5q23 0 44 -2.5t44 -9.5 l-14 -68q-16 5 -30.5 6.5t-28.5 1.5q-35 0 -60 -18.5t-25 -67.5v-47h131v-69h-131v-448h-87v448zM737 714h87v-714h-87v714z" glyph-name="f_f_l" horiz-adv-x="894" unicode="ffl"/><glyph d="M50 0v750h400v-750h-400zM400 50v650h-300v-650h300z" glyph-name=".notdef" horiz-adv-x="500"/><glyph glyph-name=".null" horiz-adv-x="0"/><glyph glyph-name=".null" horiz-adv-x="0"/><glyph glyph-name=".null" horiz-adv-x="0"/><glyph glyph-name="nonmarkingreturn" horiz-adv-x="223" unicode="	"/><glyph glyph-name="nonmarkingreturn" horiz-adv-x="223" unicode="
"/><glyph glyph-name="space" horiz-adv-x="223" unicode=" "/><glyph d="M71 714h89l-3 -509h-83zM67 116h97v-116h-97v116z" glyph-name="exclam" horiz-adv-x="230" unicode="!"/><glyph d="M40 710h88l-7 -252h-75zM206 710h88l-7 -252h-75z" glyph-name="quotedbl" horiz-adv-x="334" unicode='"'/><glyph d="M113 176h-95v65h106l33 198h-104v65h116l28 174h78l-30 -174h159l28 174h78l-28 -174h91v-65h-102l-33 -198h99v-65h-111l-28 -176h-78l30 176h-159l-29 -176h-77zM360 241l33 198h-158l-33 -198h158z" glyph-name="numbersign" unicode="#"/><glyph d="M260 -15q-104 8 -159.5 60t-63.5 145h85q13 -120 138 -133v259l-10 2q-47 8 -83 22.5t-61 38t-38 58.5t-13 83q0 39 14.5 71.5t41 57t64.5 39.5t85 20v84h66v-83q55 -5 92.5 -23t61 -43.5t35.5 -55.5t17 -59l-82 -15q-6 25 -15.5 46t-23.5 37t-35 26.5t-50 14.5v-249 l14 -2q97 -15 147 -62t50 -141q0 -38 -13 -72.5t-39.5 -61.5t-66 -44t-92.5 -21v-94h-66v95zM326 56q64 7 93 41.5t29 85.5q0 19 -4.5 38t-17 35.5t-34.5 28.5t-57 18l-9 1v-248zM260 637q-67 -8 -93.5 -40.5t-26.5 -72.5q0 -24 5 -43.5t18.5 -35t37 -27t59.5 -18.5v237z " glyph-name="dollar" unicode="$"/><glyph d="M325 0h-85l351 691h85zM708 -19q-38 0 -69.5 13t-55 39t-36.5 66.5t-13 96.5q0 55 13.5 95.5t37 67t55 39.5t68.5 13q38 0 70 -13t55 -39.5t36 -67t13 -95.5q0 -56 -12.5 -96.5t-35.5 -66.5t-55 -39t-71 -13zM708 52q45 0 69 34.5t24 109.5q0 74 -24 109t-69 35t-69 -35 t-24 -109q0 -75 24 -109.5t69 -34.5zM209 277q-38 0 -69.5 13t-55 39t-36.5 66.5t-13 96.5q0 55 13.5 95.5t37 67t55 39.5t68.5 13q38 0 70 -13t55 -39.5t36 -67t13 -95.5q0 -56 -12.5 -96.5t-35.5 -66.5t-55 -39t-71 -13zM209 348q45 0 69 34.5t24 109.5q0 74 -24 109 t-69 35t-69 -35t-24 -109q0 -75 24 -109.5t69 -34.5z" glyph-name="percent" horiz-adv-x="918" unicode="%"/><glyph d="M480 62q-34 -35 -84 -56.5t-114 -21.5q-70 0 -117.5 16.5t-76 44.5t-41 65t-12.5 77t13 71.5t34.5 57t50 46t60.5 37.5q-27 32 -51 72.5t-24 91.5q0 33 12 61.5t34 49t53 32.5t68 12q41 0 72 -11.5t51.5 -31.5t31 -47t10.5 -57q0 -36 -11.5 -63t-31 -49t-45.5 -39.5 t-54 -34.5l171 -201q16 37 21.5 73t7.5 79h81q-2 -60 -17 -114.5t-41 -99.5l105 -122h-103zM236 347q-22 -13 -42 -27.5t-35.5 -32.5t-24.5 -40t-9 -49q0 -30 8 -56.5t27 -45.5t50.5 -30t79.5 -11q50 0 85 17.5t57 43.5zM266 433q18 10 37 23t34.5 28.5t25 35.5t9.5 45 q0 44 -23.5 66t-61.5 22q-42 0 -64.5 -23.5t-22.5 -67.5q0 -38 21 -70t45 -59z" glyph-name="ampersand" horiz-adv-x="637" unicode="&"/><glyph d="M40 710h88l-7 -252h-75z" glyph-name="quotesingle" horiz-adv-x="168" unicode="'"/><glyph d="M169 -124q-57 87 -86.5 199t-29.5 230t29.5 230t86.5 199h83q-58 -103 -82 -208.5t-24 -220.5t24 -220.5t82 -208.5h-83z" glyph-name="parenleft" horiz-adv-x="263" unicode="("/><glyph d="M11 -124q58 103 82 208.5t24 220.5t-24 220.5t-82 208.5h83q57 -87 86.5 -199t29.5 -230t-29.5 -230t-86.5 -199h-83z" glyph-name="parenright" horiz-adv-x="263" unicode=")"/><glyph d="M152 532l-122 36l32 73l106 -55l-14 128h83l-14 -128l106 55l31 -73l-121 -36l94 -102l-65 -47l-72 110l-73 -110l-65 47z" glyph-name="asterisk" horiz-adv-x="390" unicode="*"/><glyph d="M256 302h-192v77h192v206h80v-206h192v-77h-192v-206h-80v206z" glyph-name="plus" unicode="+"/><glyph d="M75 119h92l-52 -216h-70z" glyph-name="comma" horiz-adv-x="223" unicode=","/><glyph d="M48 336h294v-87h-294v87z" glyph-name="hyphen" horiz-adv-x="390" unicode="-"/><glyph d="M62 117h100v-117h-100v117z" glyph-name="period" horiz-adv-x="224" unicode="."/><glyph d="M97 0h-90l227 734h90z" glyph-name="slash" horiz-adv-x="331" unicode="/"/><glyph d="M294 -18q-119 0 -185.5 87.5t-66.5 275.5q0 94 18 163t51.5 114t80.5 66.5t106 21.5t105.5 -21.5t79 -66.5t49.5 -114t17 -163t-17 -162.5t-50 -113t-80.5 -66t-107.5 -21.5zM296 60q45 0 75.5 19.5t49 56t27 89.5t8.5 120t-8.5 120t-27 90t-49 56.5t-75.5 19.5 t-76 -19.5t-49.5 -56.5t-27 -90t-8.5 -120t8.5 -120t27 -89.5t49.5 -56t76 -19.5z" glyph-name="zero" unicode="0"/><glyph d="M296 594l-159 -96l-38 65l206 128h81v-691h-90v594z" glyph-name="one" unicode="1"/><glyph d="M65 72q38 34 82 72t89 78q48 42 84 76.5t60 66.5t36 65t12 71q0 63 -34 96.5t-95 33.5q-37 0 -63 -8t-44 -23.5t-29.5 -38.5t-20.5 -54l-83 13q9 36 25 70t44 60.5t70 43t103 16.5q53 0 94 -15t68.5 -41.5t42 -63.5t14.5 -82t-12.5 -84t-38.5 -77t-66 -78t-95 -87 q-29 -25 -59.5 -50.5t-59.5 -51.5h338l-13 -80h-449v72z" glyph-name="two" unicode="2"/><glyph d="M137 191q8 -67 42 -99.5t114 -32.5q71 0 108 34.5t37 100.5q0 68 -37.5 97t-102.5 29h-79v79h82q57 0 89.5 31t32.5 91q0 54 -33.5 82.5t-99.5 28.5q-68 0 -101.5 -28t-50.5 -88l-82 13q7 35 23 67.5t43.5 58t69.5 40.5t101 15q56 0 97 -14t68 -38.5t40.5 -57t13.5 -69.5 q0 -59 -24 -98t-75 -65q60 -24 87.5 -67t27.5 -103q0 -47 -14 -86.5t-43 -68.5t-73 -45t-103 -16q-71 0 -117.5 19.5t-74.5 49.5t-39.5 67t-13.5 73h87z" glyph-name="three" unicode="3"/><glyph d="M39 237l329 454h85v-448h95l-12 -71h-83v-172h-84v172h-330v65zM369 243v333l-239 -333h239z" glyph-name="four" unicode="4"/><glyph d="M152 177q11 -61 43 -89.5t103 -28.5q66 0 103.5 39t37.5 123q0 68 -32.5 109.5t-107.5 41.5q-47 0 -81 -14.5t-62 -44.5h-76l31 378h376v-79h-303l-19 -215q32 24 67 35.5t83 11.5q56 0 96.5 -17.5t66 -48t37.5 -71t12 -85.5q0 -118 -61.5 -179t-165.5 -61 q-109 0 -167.5 49t-66.5 146h86z" glyph-name="five" unicode="5"/><glyph d="M447 539q-8 24 -17.5 42t-24 30t-34.5 17.5t-50 5.5q-38 0 -68.5 -14.5t-53 -47.5t-36 -86.5t-16.5 -132.5q32 48 77 69.5t105 21.5q56 0 95.5 -17.5t65 -48t37.5 -72t12 -89.5q0 -53 -16.5 -96t-47.5 -74t-75 -48t-98 -17q-73 0 -119.5 28.5t-73.5 74t-37.5 102 t-10.5 113.5q0 121 22 200t58 125.5t83 65.5t98 19q95 0 142 -40.5t63 -116.5zM302 55q69 0 110 42t41 117q0 33 -7.5 62t-24 50.5t-43.5 33.5t-66 12q-30 0 -59 -9t-50.5 -29t-34 -51t-10.5 -75q1 -30 11 -57.5t28 -48.5t44 -34t61 -13z" glyph-name="six" unicode="6"/><glyph d="M169 0q48 162 109 314.5t139 297.5h-373v79h471v-74q-80 -148 -141.5 -300t-106.5 -317h-98z" glyph-name="seven" unicode="7"/><glyph d="M168 353q-44 17 -75 57.5t-31 106.5q0 41 14 76t43 61t73 41t104 15q61 0 105 -14.5t72.5 -40.5t42 -61.5t13.5 -76.5q0 -66 -30.5 -105.5t-74.5 -55.5q21 -7 43 -20.5t40.5 -34t30.5 -49t12 -65.5q0 -46 -15.5 -84t-47.5 -65t-79.5 -41.5t-111.5 -14.5t-112 14.5 t-80 41.5t-47.5 65t-15.5 84q0 36 13 64t31.5 48.5t40.5 33.5t42 20zM147 513q0 -62 35.5 -93t113.5 -31t113.5 31t35.5 94q0 25 -8 48t-26 40t-46.5 27t-68.5 10t-68.5 -10t-46.5 -27.5t-26 -40.5t-8 -48zM131 186q0 -59 39.5 -95.5t126.5 -36.5q86 0 125 36.5t39 96.5 q0 28 -8.5 51.5t-27.5 40.5t-50.5 26t-77.5 9q-47 0 -78.5 -9.5t-51 -26t-28 -40.5t-8.5 -52z" glyph-name="eight" unicode="8"/><glyph d="M150 152q10 -51 40 -73.5t88 -22.5q40 0 70.5 15t50.5 49t30 87.5t10 131.5q-63 -92 -180 -92q-56 0 -95.5 17.5t-65.5 48t-38 72.5t-12 90q0 52 17 95.5t48 74.5t75 48t98 17q71 0 117 -29t73 -76t38 -106t11 -118q0 -83 -10 -155.5t-37.5 -126.5t-75 -85.5 t-122.5 -31.5q-97 0 -151.5 41t-63.5 129h85zM277 320q30 0 57 9t48 27.5t33.5 47.5t12.5 69q0 30 -8.5 59.5t-26 53t-44 37.5t-63.5 14q-69 0 -109.5 -42t-40.5 -117q0 -33 7 -62t23.5 -50t43.5 -33.5t67 -12.5z" glyph-name="nine" unicode="9"/><glyph d="M62 117h100v-117h-100v117zM62 517h100v-117h-100v117z" glyph-name="colon" horiz-adv-x="224" unicode=":"/><glyph d="M62 517h100v-117h-100v117zM75 119h92l-52 -216h-70z" glyph-name="semicolon" horiz-adv-x="224" unicode=";"/><glyph d="M77 373l449 208v-84l-348 -157l348 -157v-86l-449 208v68z" glyph-name="less" unicode="<"/><glyph d="M80 268h432v-78h-432v78zM80 491h432v-78h-432v78z" glyph-name="equal" unicode="="/><glyph d="M66 182l346 155l-346 159v85l449 -208v-68l-449 -208v85z" glyph-name="greater" unicode=">"/><glyph d="M196 220q0 33 10 58.5t25.5 46.5t35 40t37.5 38q24 23 44 52.5t20 75.5q2 54 -28.5 87t-90.5 33q-65 0 -98.5 -29t-50.5 -93l-80 13q7 36 23 69t43 58.5t67.5 41t96.5 15.5q51 0 89.5 -13.5t65 -38.5t40 -59t13.5 -74q0 -60 -23.5 -99t-55.5 -70q-18 -18 -35.5 -35 t-31 -35t-22 -38.5t-8.5 -45.5v-13h-86v15zM190 116h97v-116h-97v116z" glyph-name="question" horiz-adv-x="501" unicode="?"/><glyph d="M800 -55q-45 -74 -126 -116.5t-211 -42.5q-92 0 -168.5 28t-132 80.5t-86.5 127.5t-31 169q0 86 20 155.5t54.5 123t80 92t96 63.5t103 36.5t101.5 11.5q89 0 165 -24.5t131.5 -71.5t87 -115.5t31.5 -156.5q0 -76 -18 -133.5t-48.5 -96.5t-72 -59t-87.5 -20 q-47 0 -77.5 17.5t-37.5 60.5q-32 -45 -70.5 -64.5t-84.5 -19.5q-41 0 -72 14.5t-52.5 40t-32.5 59.5t-11 73q0 62 17.5 113.5t48.5 89t74 58t94 20.5q42 0 74.5 -18.5t53.5 -56.5q2 14 5.5 32t6.5 32h79l-58 -325q-2 -10 -2 -15q0 -50 50 -50q29 0 55.5 14.5t46.5 44.5 t32 75t12 107q0 74 -24.5 131t-69.5 96t-107.5 59.5t-138.5 20.5q-81 0 -150 -29.5t-119.5 -83.5t-78.5 -129.5t-28 -167.5q0 -79 23.5 -142t68 -107.5t108.5 -68.5t144 -24q51 0 89 6.5t67 18.5t50 29t39 38h87zM583 242q2 12 3.5 24t0.5 25q-1 18 -6.5 36.5t-17 32.5 t-30 23t-44.5 9q-30 0 -57.5 -13t-48.5 -39t-33.5 -65t-12.5 -90q0 -64 27 -95t69 -31q36 0 61 13t42 34.5t27 50t16 59.5z" glyph-name="at" horiz-adv-x="954" unicode="@"/><glyph d="M289 714h97l277 -714h-100l-75 199h-306l-75 -199h-96zM460 279l-126 331l-124 -331h250z" glyph-name="A" horiz-adv-x="674" unicode="A"/><glyph d="M79 714h237q76 0 125 -14.5t77.5 -39t39.5 -58t11 -71.5q0 -49 -22.5 -88t-78.5 -65q36 -14 59.5 -32.5t38 -41t20 -47t5.5 -50.5q0 -44 -13.5 -81.5t-43.5 -65.5t-79 -44t-121 -16h-255v714zM328 412q81 0 116 29.5t35 86.5q0 58 -37.5 84t-128.5 26h-144v-226h159z M331 76q49 0 81.5 9t52 25.5t27 40t7.5 53.5q0 63 -37 96.5t-124 33.5h-169v-258h162z" glyph-name="B" horiz-adv-x="632" unicode="B"/><glyph d="M664 235q-6 -54 -27 -100.5t-57 -80.5t-87.5 -53t-119.5 -19q-74 0 -133 25t-100 73t-63.5 117.5t-22.5 158.5q0 90 24 160t67 118t101.5 73t126.5 25q66 0 114 -17t81.5 -48t54 -74t31.5 -95l-90 -15q-9 39 -23.5 70.5t-37 53.5t-54 33.5t-76.5 11.5q-53 0 -94.5 -21.5 t-70 -60t-43.5 -93t-15 -120.5t15 -120.5t43.5 -93.5t70 -60t95.5 -21q49 0 83.5 12.5t57 35.5t35.5 55t19 70h95z" glyph-name="C" horiz-adv-x="710" unicode="C"/><glyph d="M79 714h250q78 0 139.5 -21.5t104 -65.5t65.5 -110t23 -155q0 -90 -24.5 -158t-70.5 -113t-112 -68t-148 -23h-227v714zM310 80q133 0 194 74.5t61 205.5q0 65 -13.5 116t-42 86.5t-73.5 54t-107 18.5h-158v-555h139z" glyph-name="D" horiz-adv-x="714" unicode="D"/><glyph d="M79 714h462v-81h-370v-224h350v-82h-350v-246h389l-15 -81h-466v714z" glyph-name="E" horiz-adv-x="594" unicode="E"/><glyph d="M79 714h443v-81h-351v-234h329v-83h-329v-316h-92v714z" glyph-name="F" horiz-adv-x="564" unicode="F"/><glyph d="M392 367h267v-286q-27 -25 -59.5 -43.5t-68 -31t-73 -18.5t-73.5 -6q-79 0 -140.5 25.5t-104 73.5t-64.5 117.5t-22 157.5q0 90 24 160t66.5 118t101.5 73t129 25q60 0 106 -14.5t78.5 -41.5t53.5 -64.5t32 -83.5l-89 -15q-8 31 -21.5 57t-34.5 44.5t-51.5 28.5t-73.5 10 q-56 0 -98 -21.5t-70 -60.5t-42.5 -93.5t-14.5 -120.5t14 -120.5t43.5 -93.5t73.5 -60t104 -21q54 0 101.5 13t85.5 41v171h-180v80z" glyph-name="G" horiz-adv-x="716" unicode="G"/><glyph d="M79 714h92v-302h361v302h92v-714h-92v326h-361v-326h-92v714z" glyph-name="H" horiz-adv-x="703" unicode="H"/><glyph d="M79 714h92v-714h-92v714z" glyph-name="I" horiz-adv-x="250" unicode="I"/><glyph d="M120 214q4 -33 14 -61t28.5 -48t47 -31.5t70.5 -11.5q84 0 118.5 47t34.5 133v472h92v-479q0 -127 -65 -190t-178 -63q-112 0 -178 56t-77 176h93z" glyph-name="J" horiz-adv-x="597" unicode="J"/><glyph d="M79 714h93v-342l335 342h105l-255 -267l281 -447h-106l-242 386l-118 -118v-268h-93v714z" glyph-name="K" horiz-adv-x="650" unicode="K"/><glyph d="M79 714h92v-632h370l-14 -82h-448v714z" glyph-name="L" horiz-adv-x="562" unicode="L"/><glyph d="M79 714h114l230 -604l234 604h110v-714h-85v563l-224 -563h-75l-220 561v-561h-84v714z" glyph-name="M" horiz-adv-x="846" unicode="M"/><glyph d="M79 714h91l363 -567v567h89v-714h-88l-366 564v-564h-89v714z" glyph-name="N" horiz-adv-x="701" unicode="N"/><glyph d="M383 -18q-73 0 -133.5 24.5t-104 72t-67.5 117.5t-24 160t24.5 160t68 118t104 73t132.5 25q73 0 133.5 -24.5t103.5 -72t67 -117t24 -159.5t-23.5 -160.5t-66.5 -118.5t-103.5 -73t-134.5 -25zM383 62q57 0 100.5 21t72.5 59.5t44 93t15 121.5q0 66 -15 120.5 t-44.5 93.5t-72.5 60t-100 21q-58 0 -101.5 -21t-73 -60t-44 -93.5t-14.5 -120.5q0 -67 14.5 -121.5t43.5 -93t72.5 -59.5t102.5 -21z" glyph-name="O" horiz-adv-x="765" unicode="O"/><glyph d="M79 714h239q79 0 130.5 -17t81 -46t41 -67.5t11.5 -81.5q0 -45 -12 -86t-42 -72t-81 -49t-129 -18h-148v-277h-91v714zM317 355q52 0 86 10t53 29t26.5 45.5t7.5 59.5q0 34 -8 60t-28 43t-53.5 25.5t-84.5 8.5h-146v-281h147z" glyph-name="P" horiz-adv-x="626" unicode="P"/><glyph d="M553 24q-36 -20 -78.5 -31t-91.5 -11q-73 0 -133.5 24.5t-104 72t-67.5 117.5t-24 160t24.5 160t68 118t104 73t132.5 25q73 0 133.5 -24.5t103.5 -72t67 -117t24 -159.5q0 -94 -25 -166.5t-72 -120.5l87 -103l-59 -51zM410 197l59 50l87 -105q59 79 59 215 q0 66 -15 120.5t-44.5 93.5t-72.5 60t-100 21q-58 0 -101.5 -21t-73 -60t-44 -93.5t-14.5 -120.5q0 -67 14.5 -121.5t43.5 -93t72.5 -59.5t102.5 -21q66 0 115 29z" glyph-name="Q" horiz-adv-x="765" unicode="Q"/><glyph d="M79 714h234q80 0 131 -18t80.5 -46.5t40.5 -64.5t11 -73q0 -68 -28.5 -116t-93.5 -75l150 -321h-103l-135 299q-13 -2 -28 -2.5t-27 -0.5h-141v-296h-91v714zM322 375q48 0 79 9.5t49 27t25 42.5t7 56q0 30 -8 53t-27.5 39.5t-52.5 25t-84 8.5h-140v-261h152z" glyph-name="R" horiz-adv-x="632" unicode="R"/><glyph d="M131 203q12 -75 59.5 -108.5t141.5 -33.5q47 0 78.5 10.5t50.5 28t27 41t8 49.5q0 21 -5 40.5t-19.5 35.5t-40 28t-65.5 19l-90 16q-53 9 -94 24t-69.5 38.5t-43 58.5t-14.5 85q0 49 20.5 86t55.5 62t83 37t104 12q71 0 118.5 -15.5t77.5 -41.5t45.5 -59.5t23.5 -68.5 l-86 -17q-8 30 -20.5 53.5t-33 39t-50.5 23.5t-73 8q-49 0 -82 -9t-53 -24.5t-28.5 -37t-8.5 -45.5q0 -26 6.5 -45.5t22 -34t40.5 -24t62 -16.5l100 -18q111 -21 163 -69.5t52 -142.5q0 -43 -16.5 -80.5t-49 -65.5t-81.5 -44t-115 -16q-63 0 -114.5 12.5t-89.5 39.5t-61 69 t-28 100h92z" glyph-name="S" horiz-adv-x="643" unicode="S"/><glyph d="M254 632h-236v82h565v-82h-236v-632h-93v632z" glyph-name="T" horiz-adv-x="601" unicode="T"/><glyph d="M71 714h92v-431q0 -111 41.5 -166t137.5 -55q97 0 137 55.5t40 165.5v431h92v-431q0 -80 -18.5 -136.5t-53 -93.5t-85 -54t-113.5 -17q-129 0 -199.5 72t-70.5 233v427z" glyph-name="U" horiz-adv-x="682" unicode="U"/><glyph d="M13 714h104l217 -595l221 595h99l-274 -714h-93z" glyph-name="V" horiz-adv-x="666" unicode="V"/><glyph d="M12 714h104l149 -587l155 584h99l154 -584l148 587h98l-198 -714h-97l-159 597l-156 -597h-94z" glyph-name="W" horiz-adv-x="931" unicode="W"/><glyph d="M263 377l-233 337h108l180 -271l183 271h99l-231 -341l258 -373h-107l-207 304l-201 -304h-101z" glyph-name="X" horiz-adv-x="638" unicode="X"/><glyph d="M262 303l-249 411h106l189 -330l194 330h97l-244 -411v-303h-93v303z" glyph-name="Y" horiz-adv-x="613" unicode="Y"/><glyph d="M31 71l410 562h-403v81h512v-72l-409 -560h421l-14 -82h-517v71z" glyph-name="Z" horiz-adv-x="586" unicode="Z"/><glyph d="M75 734h197v-75h-108v-708h108v-75h-197v858z" glyph-name="bracketleft" horiz-adv-x="283" unicode="["/><glyph d="M96 734l228 -734h-89l-228 734h89z" glyph-name="backslash" horiz-adv-x="331" unicode="\"/><glyph d="M11 -49h107v708h-107v75h196v-858h-196v75z" glyph-name="bracketright" horiz-adv-x="283" unicode="]"/><glyph d="M259 709h74l203 -407h-93l-149 307l-148 -307h-90z" glyph-name="asciicircum" unicode="^"/><glyph d="M0 -123h500v-52h-500v52z" glyph-name="underscore" horiz-adv-x="500" unicode="_"/><glyph d="M85 733h107l114 -142h-86z" glyph-name="grave" horiz-adv-x="391" unicode="`"/><glyph d="M389 71q-28 -34 -71 -58.5t-107 -24.5q-39 0 -71.5 9.5t-56 29t-36.5 48.5t-13 68q0 53 22.5 86t60 52t84.5 27t97 10l89 3v20q0 66 -28 95t-91 29q-62 0 -91 -20.5t-38 -56.5l-79 9q14 71 67 103.5t144 32.5q56 0 94.5 -13.5t62.5 -38.5t34.5 -62t10.5 -83v-336h-84v71z M387 259l-83 -3q-53 -2 -88 -10t-55.5 -21.5t-29 -33.5t-8.5 -46q0 -39 23.5 -62.5t77.5 -23.5q77 0 120 38t43 104v58z" glyph-name="a" horiz-adv-x="538" unicode="a"/><glyph d="M67 714h87v-269q32 42 74 65t99 23q55 0 96.5 -20t69 -56t41 -85.5t13.5 -109.5q0 -64 -16 -115.5t-46 -87.5t-72.5 -55.5t-95.5 -19.5q-45 0 -87.5 18.5t-76.5 63.5v-66h-86v714zM153 244q0 -50 11.5 -85.5t31.5 -58.5t48 -33.5t61 -10.5q32 0 59.5 11t47.5 35.5 t31.5 63.5t11.5 95q0 57 -12.5 95.5t-32.5 61.5t-45.5 33t-52.5 10q-34 0 -63 -11.5t-50.5 -34t-33.5 -57t-12 -79.5v-35z" glyph-name="b" horiz-adv-x="597" unicode="b"/><glyph d="M515 175q-13 -89 -68 -140t-155 -51q-59 0 -104.5 19t-76 54.5t-46 86t-15.5 113.5q0 62 17 113t49 87t78 56t104 20q93 0 144 -45.5t65 -125.5l-87 -16q-5 25 -13.5 46t-23.5 36.5t-36.5 24t-51.5 8.5q-41 0 -70 -15.5t-47.5 -43t-27 -64.5t-8.5 -79t8 -79t26 -64.5 t47 -43.5t71 -16q63 0 93.5 32t39.5 87h88z" glyph-name="c" horiz-adv-x="559" unicode="c"/><glyph d="M443 74q-32 -43 -74 -66.5t-99 -23.5t-98.5 21t-68.5 57.5t-40 86.5t-13 107q0 64 16 115.5t45.5 87.5t72 55t96.5 19q41 0 83 -16.5t78 -62.5v260h87v-714h-85v74zM444 274q0 62 -13.5 96.5t-44.5 58.5q-22 18 -44.5 25t-49.5 7q-32 0 -59.5 -11t-48 -35.5t-32 -63 t-11.5 -93.5q0 -57 12.5 -96t33 -62t46 -33t52.5 -10q29 0 52 7t46 24q30 24 45.5 60t15.5 91v35z" glyph-name="d" horiz-adv-x="596" unicode="d"/><glyph d="M514 145q-13 -75 -66.5 -118t-153.5 -43q-118 0 -181 71.5t-63 199.5q0 67 18 119t50.5 87t77.5 53.5t98 18.5q60 0 103 -19t70.5 -52.5t41 -79.5t13.5 -101v-44h-384q0 -39 10.5 -72.5t30 -58t48.5 -38.5t67 -14q65 0 95 24.5t41 66.5h84zM435 302q0 37 -8 67t-25 51.5 t-44 33.5t-65 12q-69 0 -107.5 -42t-45.5 -122h295z" glyph-name="e" horiz-adv-x="570" unicode="e"/><glyph d="M98 448h-81v69h81v45q0 42 12.5 72t34 49.5t50 29t60.5 9.5q23 0 44 -2.5t44 -9.5l-14 -68q-16 5 -30.5 6.5t-28.5 1.5q-35 0 -60 -18.5t-25 -67.5v-47h131v-69h-131v-448h-87v448z" glyph-name="f" horiz-adv-x="334" unicode="f"/><glyph d="M155 -48q11 -47 42.5 -67t98.5 -20q82 0 113.5 45.5t31.5 132.5v55q-30 -42 -72.5 -65t-99.5 -23q-56 0 -97.5 20.5t-68.5 56t-40.5 82.5t-13.5 101q0 59 16 107.5t46 83t72.5 53.5t95.5 19q43 0 85.5 -17.5t77.5 -64.5v66h86v-433q0 -67 -9.5 -120.5t-35 -91 t-70.5 -57.5t-116 -20q-102 0 -160 36.5t-68 120.5h86zM443 278q0 51 -12 85.5t-33 56.5t-48.5 31.5t-57.5 9.5q-32 0 -59.5 -10.5t-48 -33.5t-32 -59t-11.5 -87q0 -52 12.5 -88t32.5 -58t46.5 -32t53.5 -10q34 0 62.5 11t49.5 33t33 55.5t12 78.5v17z" glyph-name="g" horiz-adv-x="595" unicode="g"/><glyph d="M67 714h87v-274q38 49 83.5 71t96.5 22q88 0 130.5 -48t42.5 -141v-344h-88v327q0 72 -25.5 101.5t-79.5 29.5q-29 0 -57.5 -10t-51.5 -32q-25 -22 -38 -46.5t-13 -63.5v-306h-87v714z" glyph-name="h" horiz-adv-x="570" unicode="h"/><glyph d="M69 517h87v-517h-87v517zM66 714h93v-101h-93v101z" glyph-name="i" horiz-adv-x="225" unicode="i"/><glyph d="M66 714h93v-101h-93v101zM-66 -101q14 -5 30.5 -7.5t37.5 -2.5q37 0 52 20t15 62v546h87v-523q0 -39 -6 -72t-21.5 -57t-43 -37.5t-69.5 -13.5q-31 0 -54 4.5t-43 11.5z" glyph-name="j" horiz-adv-x="225" unicode="j"/><glyph d="M67 714h86v-416l242 219h105l-185 -173l205 -344h-99l-171 293l-97 -87v-206h-86v714z" glyph-name="k" horiz-adv-x="523" unicode="k"/><glyph d="M69 714h87v-714h-87v714z" glyph-name="l" horiz-adv-x="225" unicode="l"/><glyph d="M67 517h86v-79q35 48 77 71.5t86 23.5q58 0 93.5 -25t52.5 -72q35 48 80 72.5t96 24.5q76 0 117.5 -41.5t41.5 -133.5v-358h-87v338q0 35 -6 58.5t-17.5 37t-28.5 19t-39 5.5q-23 0 -48 -8t-49 -28q-20 -17 -33 -41t-13 -55v-326h-87v337q0 68 -23.5 94.5t-67.5 26.5 q-51 0 -96 -42q-17 -16 -32.5 -41t-15.5 -67v-308h-87v517z" glyph-name="m" horiz-adv-x="861" unicode="m"/><glyph d="M67 517h86v-79q38 51 84 73t97 22q88 0 130.5 -48t42.5 -141v-344h-87v327q0 72 -26 101.5t-80 29.5q-29 0 -57.5 -10t-51.5 -32q-25 -22 -38 -46.5t-13 -63.5v-306h-87v517z" glyph-name="n" horiz-adv-x="570" unicode="n"/><glyph d="M299 -16q-59 0 -105 19t-78 54t-49 86t-17 114t18 114t51 87t79.5 55.5t103.5 19.5q58 0 104 -19t78.5 -54.5t49.5 -85.5t17 -113q0 -64 -17.5 -115t-50 -87t-79.5 -55.5t-105 -19.5zM300 56q42 0 72 15t49.5 42t28.5 64.5t9 82.5q0 44 -9 81t-28.5 63.5t-49.5 41.5 t-72 15t-71.5 -15t-49 -41.5t-28.5 -63.5t-9 -82t9 -82t28 -64t49 -42t72 -15z" glyph-name="o" horiz-adv-x="601" unicode="o"/><glyph d="M67 517h86v-74q32 44 74.5 67t99.5 23q55 0 96.5 -20t69 -56t41 -85.5t13.5 -109.5q0 -64 -16 -115.5t-46 -87.5t-72.5 -55.5t-95.5 -19.5q-44 0 -86.5 17.5t-76.5 62.5v-258h-87v711zM153 244q0 -50 11.5 -85.5t31.5 -58.5t48 -33.5t61 -10.5q32 0 59.5 11t47.5 35.5 t31.5 63.5t11.5 95q0 57 -12.5 95.5t-32.5 61.5t-45.5 33t-52.5 10q-34 0 -63 -11.5t-50.5 -34t-33.5 -57t-12 -79.5v-35z" glyph-name="p" horiz-adv-x="597" unicode="p"/><glyph d="M442 73q-32 -42 -74 -65.5t-98 -23.5q-57 0 -98.5 21t-68.5 57.5t-40 86.5t-13 107q0 64 16 115.5t45.5 87.5t72 55t96.5 19q42 0 84.5 -17t78.5 -65v66h86v-711h-87v267zM444 274q0 62 -13.5 96.5t-43.5 58.5q-23 18 -45.5 25t-49.5 7q-32 0 -59.5 -11t-48 -35.5 t-32 -63t-11.5 -93.5q0 -57 12.5 -96t33 -62t46.5 -33t53 -10q29 0 51.5 7t45.5 24q29 24 45 60t16 91v35z" glyph-name="q" horiz-adv-x="597" unicode="q"/><glyph d="M67 517h86v-80q29 43 68 66t83 23q27 0 46 -4l-11 -81q-10 2 -20 3.5t-22 1.5q-24 0 -49 -8.5t-47 -28.5q-22 -19 -34.5 -44t-12.5 -58v-307h-87v517z" glyph-name="r" horiz-adv-x="366" unicode="r"/><glyph d="M123 151q9 -54 45.5 -75.5t99.5 -21.5q66 0 93.5 22.5t27.5 59.5q0 15 -3.5 28.5t-13.5 24t-28 18.5t-47 13l-66 10q-44 7 -77 18t-56 28.5t-34.5 43t-11.5 61.5t15.5 64t43 47.5t65 30t81.5 10.5q56 0 93.5 -11t61.5 -30t37 -45t20 -55l-79 -13q-7 21 -16 37t-24 26.5 t-36.5 16t-53.5 5.5q-36 0 -60 -6.5t-38.5 -17.5t-20.5 -24.5t-6 -28.5q0 -16 4 -28.5t15 -22t30 -16.5t49 -12l75 -12q91 -15 130.5 -52t39.5 -108q0 -33 -13 -60.5t-39 -48t-65 -32t-91 -11.5q-47 0 -87.5 9t-71.5 28.5t-50 51.5t-22 78h84z" glyph-name="s" horiz-adv-x="522" unicode="s"/><glyph d="M97 448h-80v69h80v141h87v-141h137v-69h-137v-303q0 -38 17 -61t52 -23q22 0 38.5 3t30.5 8l15 -67q-20 -7 -43.5 -11.5t-55.5 -4.5q-44 0 -71 13t-43 37t-21.5 57t-5.5 72v280z" glyph-name="t" horiz-adv-x="347" unicode="t"/><glyph d="M64 517h87v-326q0 -72 23.5 -102t76.5 -30q58 0 105 42q25 22 38 46.5t13 63.5v306h87v-517h-86v80q-38 -50 -82 -73t-95 -23q-88 0 -127.5 47.5t-39.5 142.5v343z" glyph-name="u" horiz-adv-x="561" unicode="u"/><glyph d="M7 517h101l154 -420l157 420h96l-208 -517h-93z" glyph-name="v" horiz-adv-x="521" unicode="v"/><glyph d="M8 517h95l104 -412l119 409h88l116 -409l103 412h92l-151 -517h-92l-116 412l-117 -412h-91z" glyph-name="w" horiz-adv-x="733" unicode="w"/><glyph d="M202 272l-173 245h102l123 -183l128 183h93l-170 -244l188 -273h-101l-142 209l-143 -209h-96z" glyph-name="x" horiz-adv-x="503" unicode="x"/><glyph d="M65 -110q28 -10 56 -10q32 0 49.5 16.5t34.5 61.5l21 55l-219 504h101l163 -406l149 406h96l-226 -566q-14 -35 -28 -61.5t-31 -45.5t-40.5 -28.5t-57.5 -9.5q-24 0 -43 3t-42 11z" glyph-name="y" horiz-adv-x="523" unicode="y"/><glyph d="M28 65l301 382h-295v70h403v-65l-301 -382h316l-11 -70h-413v65z" glyph-name="z" horiz-adv-x="467" unicode="z"/><glyph d="M99 194q0 35 -15 54.5t-52 19.5h-5v74h5q37 0 52 19.5t15 54.5v194q0 68 33.5 96t91.5 28h59v-73h-47q-53 0 -53 -52v-213q0 -35 -13.5 -59t-44.5 -32q31 -8 44.5 -32t13.5 -59v-213q0 -52 53 -52h47v-73h-59q-58 0 -91.5 28t-33.5 96v194z" glyph-name="braceleft" horiz-adv-x="288" unicode="{"/><glyph d="M71 734h86v-858h-86v858z" glyph-name="bar" horiz-adv-x="228" unicode="|"/><glyph d="M5 -51h47q53 0 53 52v213q0 35 13.5 59t44.5 32q-31 8 -44.5 32t-13.5 59v213q0 52 -53 52h-47v73h59q58 0 91.5 -28t33.5 -96v-194q0 -35 15 -54.5t52 -19.5h5v-74h-5q-37 0 -52 -19.5t-15 -54.5v-194q0 -68 -33.5 -96t-91.5 -28h-59v73z" glyph-name="braceright" horiz-adv-x="288" unicode="}"/><glyph d="M43 250q0 51 11 84.5t30 54t45 28.5t57 8q35 0 64 -16.5t54.5 -36t49 -35.5t48.5 -16q36 0 52.5 21.5t16.5 72.5h76q0 -51 -10.5 -84.5t-29.5 -54t-44.5 -29t-56.5 -8.5q-35 0 -64 16.5t-54.5 36.5t-49.5 36.5t-48 16.5q-37 0 -53 -22t-16 -73h-78z" glyph-name="asciitilde" unicode="~"/><glyph glyph-name="uni00A0" horiz-adv-x="223" unicode=" "/><glyph d="M74 312h83l3 -506h-89zM67 518h97v-116h-97v116z" glyph-name="exclamdown" horiz-adv-x="230" unicode="¡"/><glyph d="M280 78q-51 4 -90 24.5t-66 55.5t-41 82.5t-14 105.5t15 105.5t42.5 83t66.5 57t87 26.5v89h66v-87q78 -5 125 -49.5t60 -117.5l-86 -16q-8 43 -31 72.5t-68 37.5v-396q45 6 70.5 36t33.5 77h88q-12 -81 -60 -130t-132 -56v-87h-66v87zM280 545q-32 -6 -55 -23 t-37.5 -42.5t-21.5 -59t-7 -72.5q0 -38 7 -71.5t21.5 -59.5t37.5 -43.5t55 -22.5v394z" glyph-name="cent" unicode="¢"/><glyph d="M88 71q34 37 46.5 81.5t12.5 95.5q0 14 -2 28t-4 34h-74v72h65q-4 24 -7.5 51t-3.5 60q0 55 17 96t46 68t67.5 40t81.5 13q54 0 90 -13t59 -35t35.5 -51t19.5 -62l-77 -15q-8 26 -17 45t-23 32t-34 19t-50 6q-69 0 -100 -39.5t-31 -100.5q0 -35 3.5 -61.5t7.5 -52.5h225 v-72h-215q2 -16 2.5 -28t0.5 -24q0 -45 -8.5 -92t-40.5 -88h374l-13 -78h-454z" glyph-name="sterling" unicode="£"/><glyph d="M116 194q-20 29 -31.5 67t-11.5 83q0 47 12 85.5t32 68.5l-58 62l54 53l60 -65q51 37 123 37q73 0 122 -37l61 65l54 -53l-60 -63q20 -29 30.5 -66.5t10.5 -82.5t-10.5 -83.5t-30.5 -68.5l61 -63l-55 -52l-61 63q-26 -17 -57.5 -26t-67.5 -9t-66 8.5t-55 24.5l-59 -61 l-55 52zM294 178q38 0 65 12.5t44 35t24.5 53.5t7.5 67q0 37 -7.5 68t-24.5 53.5t-44 35.5t-65 13t-64.5 -13t-43.5 -35.5t-25 -53.5t-8 -68q0 -36 8 -67t25 -53.5t43.5 -35t64.5 -12.5z" glyph-name="currency" unicode="¤"/><glyph d="M73 224h181v74l-13 22h-168v67h127l-177 304h96l179 -323l182 323h89l-175 -304h130v-67h-172l-11 -22v-74h183v-67h-183v-157h-87v157h-181v67z" glyph-name="yen" unicode="¥"/><glyph d="M71 734h86v-344h-86v344zM71 225h86v-349h-86v349z" glyph-name="brokenbar" horiz-adv-x="228" unicode="¦"/><glyph d="M126 55q10 -59 44.5 -81.5t101.5 -22.5q37 0 61 6t38 17t20 26t6 33q0 14 -3.5 27.5t-13.5 25.5t-28.5 22t-48.5 18l-89 23q-89 22 -127.5 61t-38.5 106q0 44 25.5 79t74.5 54q-45 19 -71 48.5t-26 82.5q0 37 16.5 65.5t45 48t67.5 29t85 9.5q58 0 97 -13t63.5 -33.5 t37.5 -46t19 -50.5l-79 -18q-7 21 -16.5 37.5t-25.5 28t-39 17.5t-56 6q-74 0 -102 -23.5t-28 -57.5q0 -13 3.5 -25.5t13.5 -23.5t28.5 -20.5t48.5 -17.5l93 -24q85 -21 124 -59t39 -100q0 -47 -25 -83t-75 -56q38 -17 61.5 -42.5t30.5 -63.5q3 -12 3.5 -24t-1.5 -25 q-6 -69 -61.5 -102.5t-144.5 -33.5q-49 0 -89.5 9t-71 30t-49.5 54.5t-23 82.5h85zM254 211q30 -9 57 -6q42 5 68.5 29.5t26.5 65.5q0 15 -3.5 28.5t-14 26.5t-29.5 23.5t-51 19.5l-41 11q-17 5 -32 6t-28 -2q-37 -5 -58.5 -31t-21.5 -65q0 -14 3.5 -28t14 -27t29.5 -24 t51 -20z" glyph-name="section" horiz-adv-x="527" unicode="§"/><glyph d="M64 714h88v-99h-88v99zM238 714h89v-99h-89v99z" glyph-name="dieresis" horiz-adv-x="391" unicode="¨"/><glyph d="M387 0q-76 0 -139 25.5t-108 72t-70 112.5t-25 147t26.5 147t73 112.5t109 72t133.5 25.5q76 0 138.5 -25.5t107.5 -72t69.5 -112.5t24.5 -147t-26.5 -147t-72.5 -112.5t-108 -72t-133 -25.5zM386 67q58 0 107 20.5t84.5 58.5t55.5 91.5t20 119.5t-20 119t-55.5 91 t-84.5 58.5t-107 20.5q-59 0 -108 -20.5t-84.5 -58.5t-55 -91t-19.5 -119t19.5 -119.5t55 -91.5t84.5 -58.5t108 -20.5zM554 299q-10 -66 -50.5 -104t-115.5 -38q-89 0 -135 53.5t-46 144.5q0 45 12.5 82t36.5 63.5t58 41t77 14.5q69 0 107.5 -34t48.5 -92l-73 -13 q-8 36 -28 55.5t-57 19.5q-28 0 -47.5 -10.5t-32 -29t-18 -43t-5.5 -52.5t5.5 -52.5t17.5 -43t31.5 -29.5t47.5 -11q37 0 61 18.5t30 59.5h75z" glyph-name="copyright" horiz-adv-x="774" unicode="©"/><glyph d="M301 388q-22 -24 -53 -39.5t-73 -15.5q-60 0 -97.5 29t-37.5 86q0 39 16.5 63.5t44 39t63.5 20t74 7.5l61 3v9q0 44 -19 65.5t-64 21.5q-47 0 -66 -15.5t-26 -40.5l-63 8q21 103 157 103q42 0 71 -10t47 -29t26 -45.5t8 -60.5v-245h-69v46zM299 529l-57 -2 q-39 -2 -64 -7.5t-39.5 -14.5t-20 -23t-5.5 -32q0 -28 16.5 -43.5t55.5 -15.5q19 0 38 4t39 16q20 13 28.5 32t8.5 46v40z" glyph-name="ordfeminine" horiz-adv-x="425" unicode="ª"/><glyph d="M43 257l137 222h88l-126 -221l126 -225h-90zM243 257l137 222h88l-126 -221l126 -225h-90z" glyph-name="guillemotleft" horiz-adv-x="497" unicode="«"/><glyph d="M66 432h444v-267h-79v190h-365v77z" glyph-name="logicalnot" unicode="¬"/><glyph d="M48 336h294v-87h-294v87z" glyph-name="uni00AD" horiz-adv-x="390" unicode="­"/><glyph d="M161 623h77q28 0 45 -5.5t26.5 -14t13 -20t3.5 -23.5q0 -22 -7.5 -35.5t-26.5 -21.5l44 -86h-52l-38 76h-38v-76h-47v206zM244 533q26 0 31 8t5 19q0 9 -7 16.5t-35 7.5h-30v-51h36zM241 300q-46 0 -84.5 15t-66 43t-42.5 68t-15 90t16 90t44.5 68t66 43t81.5 15 q47 0 85.5 -15t65.5 -43t42 -68t15 -90t-16 -90t-44.5 -68t-66.5 -43t-81 -15zM240 347q69 0 112.5 44t43.5 125t-43.5 125t-112.5 44t-111.5 -44t-42.5 -125t42.5 -125t111.5 -44z" glyph-name="registered" horiz-adv-x="483" unicode="®"/><glyph d="M65 693h261v-71h-261v71z" glyph-name="macron" horiz-adv-x="391" unicode="¯"/><glyph d="M27 574q0 30 10.5 55t29.5 44t45 29.5t56 10.5t56 -10.5t44.5 -29.5t29 -44t10.5 -55t-10.5 -55.5t-29 -44.5t-44.5 -29.5t-56 -10.5t-56 10.5t-45 29.5t-29.5 44.5t-10.5 55.5zM168 497q32 0 52.5 20.5t20.5 56.5q0 34 -20.5 55.5t-52.5 21.5q-33 0 -53.5 -21.5 t-20.5 -55.5q0 -36 20.5 -56.5t53.5 -20.5z" glyph-name="degree" horiz-adv-x="335" unicode="°"/><glyph d="M80 80h432v-79h-432v79zM256 302h-192v77h192v206h80v-206h192v-77h-192v-206h-80v206z" glyph-name="plusminus" unicode="±"/><glyph d="M61 351q16 14 43 35t60 49q28 24 47.5 41t32.5 33t19 32.5t6 39.5q0 27 -16 44t-46 17q-34 0 -53.5 -16t-29.5 -53l-71 11q6 23 16.5 45t28 39.5t44.5 28t66 10.5q35 0 61 -9.5t43.5 -26t26 -38.5t8.5 -47t-5.5 -46t-18.5 -41.5t-34 -42t-52 -47.5q-14 -12 -30 -24.5 t-34 -26.5h179l-11 -65h-280v58z" glyph-name="twosuperior" horiz-adv-x="412" unicode="²"/><glyph d="M121 412q5 -35 23.5 -54.5t60.5 -19.5q77 0 77 68q0 35 -20 48.5t-52 13.5h-47v62h48q28 0 46 14.5t18 45.5q0 57 -70 57q-36 0 -54.5 -16t-27.5 -50l-68 11q4 21 14.5 41.5t28 37t44 26.5t63.5 10q72 0 107 -31t35 -79q0 -32 -13 -53.5t-38 -38.5q33 -15 46.5 -40.5 t13.5 -57.5q0 -57 -35.5 -93.5t-113.5 -36.5q-45 0 -74 13t-46.5 33.5t-25 44t-8.5 44.5h68z" glyph-name="threesuperior" horiz-adv-x="412" unicode="³"/><glyph d="M199 733h107l-135 -142h-86z" glyph-name="acute" horiz-adv-x="391" unicode="´"/><glyph d="M67 517h87v-330q0 -72 26.5 -100t79.5 -28q27 0 50.5 10t49.5 32q22 19 36 44t14 57v315h87v-517h-86v78q-35 -48 -75 -70.5t-87 -22.5q-28 0 -52 6.5t-43 27.5v-213h-87v711z" glyph-name="mu" horiz-adv-x="564" unicode="µ"/><glyph d="M245 296q-63 2 -105.5 20t-69 46.5t-38 65t-11.5 76.5q0 43 14 81.5t46 67t85.5 45t133.5 16.5h238v-853h-87v779h-119v-779h-87v435z" glyph-name="paragraph" horiz-adv-x="609" unicode="¶"/><glyph d="M62 432h100v-117h-100v117z" glyph-name="periodcentered" horiz-adv-x="224" unicode="·"/><glyph d="M102 -148q19 -2 32.5 -3t27.5 -1q30 0 43 8t13 23q0 17 -14.5 24.5t-54.5 7.5h-21l34 94h57l-19 -53q27 -3 44 -10.5t27.5 -18t14.5 -23.5t4 -27q0 -45 -34 -63t-93 -18q-14 0 -29 1t-32 4v55z" glyph-name="cedilla" horiz-adv-x="391" unicode="¸"/><glyph d="M189 613l-92 -48l-30 57l124 70h78v-399h-80v320z" glyph-name="onesuperior" horiz-adv-x="412" unicode="¹"/><glyph d="M213 329q-85 0 -135 54t-50 147q0 46 13.5 83.5t38.5 64t59 40.5t76 14q85 0 135 -53.5t50 -146.5q0 -47 -13 -84.5t-37.5 -63.5t-59 -40.5t-77.5 -14.5zM214 391q59 0 85.5 39t26.5 101q0 61 -26.5 100.5t-85.5 39.5q-29 0 -50.5 -10.5t-35 -29.5t-20 -44.5t-6.5 -56.5 q0 -62 26.5 -100.5t85.5 -38.5z" glyph-name="ordmasculine" horiz-adv-x="428" unicode="º"/><glyph d="M155 254l-126 225h90l135 -224l-137 -222h-88zM355 254l-126 225h90l135 -224l-137 -222h-88z" glyph-name="guillemotright" horiz-adv-x="497" unicode="»"/><glyph d="M304 0h-85l351 691h85zM154 613l-92 -48l-30 57l124 70h78v-399h-80v320zM541 143l199 257h69v-247h50l-10 -59h-40v-93h-72v93h-196v49zM737 153v151l-117 -151h117z" glyph-name="onequarter" horiz-adv-x="911" unicode="¼"/><glyph d="M278 0h-85l351 691h85zM154 613l-92 -48l-30 57l124 70h78v-399h-80v320zM557 59q16 14 43 35t60 49q28 24 47.5 41t32.5 33t19 32.5t6 39.5q0 27 -16 44t-46 17q-34 0 -53.5 -16t-29.5 -53l-71 11q6 23 16.5 45t28 39.5t44.5 28t66 10.5q35 0 61 -9.5t43.5 -26t26 -38.5 t8.5 -47t-5.5 -46t-18.5 -41.5t-34 -42t-52 -47.5q-14 -12 -30 -24.5t-34 -26.5h179l-11 -65h-280v58z" glyph-name="onehalf" horiz-adv-x="911" unicode="½"/><glyph d="M350 0h-85l351 691h85zM541 143l199 257h69v-247h50l-10 -59h-40v-93h-72v93h-196v49zM737 153v151l-117 -151h117zM121 412q5 -35 23.5 -54.5t60.5 -19.5q77 0 77 68q0 35 -20 48.5t-52 13.5h-47v62h48q28 0 46 14.5t18 45.5q0 57 -70 57q-36 0 -54.5 -16t-27.5 -50 l-68 11q4 21 14.5 41.5t28 37t44 26.5t63.5 10q72 0 107 -31t35 -79q0 -32 -13 -53.5t-38 -38.5q33 -15 46.5 -40.5t13.5 -57.5q0 -57 -35.5 -93.5t-113.5 -36.5q-45 0 -74 13t-46.5 33.5t-25 44t-8.5 44.5h68z" glyph-name="threequarters" horiz-adv-x="911" unicode="¾"/><glyph d="M477 -22q-7 -36 -23 -69t-43 -58.5t-67.5 -41t-96.5 -15.5q-51 0 -89.5 13.5t-65 38t-40 58t-13.5 73.5q0 30 6.5 54.5t17 44.5t25 37t30.5 33q18 18 35.5 34.5t31 34.5t22 38.5t8.5 46.5v13h86v-16q0 -33 -10 -58t-25.5 -46.5t-35 -40t-37.5 -37.5q-24 -23 -44 -52.5 t-20 -74.5q-2 -54 28.5 -86.5t90.5 -32.5q65 0 98.5 29.5t50.5 92.5zM210 517h97v-116h-97v116z" glyph-name="questiondown" horiz-adv-x="495" unicode="¿"/><glyph d="M289 714h97l277 -714h-100l-75 199h-306l-75 -199h-96zM460 279l-126 331l-124 -331h250zM295 908l117 -135h-87l-138 135h108z" glyph-name="Agrave" horiz-adv-x="674" unicode="À"/><glyph d="M289 714h97l277 -714h-100l-75 199h-306l-75 -199h-96zM460 279l-126 331l-124 -331h250zM379 908h108l-138 -135h-87z" glyph-name="Aacute" horiz-adv-x="674" unicode="Á"/><glyph d="M289 714h97l277 -714h-100l-75 199h-306l-75 -199h-96zM460 279l-126 331l-124 -331h250zM293 908h87l115 -135h-82l-77 79l-77 -79h-82z" glyph-name="Acircumflex" horiz-adv-x="674" unicode="Â"/><glyph d="M289 714h97l277 -714h-100l-75 199h-306l-75 -199h-96zM460 279l-126 331l-124 -331h250zM157 779q0 58 28 88t77 30q25 0 43.5 -8.5t34.5 -18t31 -18t33 -8.5q26 0 36 14t10 37h66q0 -59 -28 -88.5t-77 -29.5q-25 0 -43.5 8.5t-34.5 18t-31 18t-33 8.5q-26 0 -36 -14 t-10 -37h-66z" glyph-name="Atilde" horiz-adv-x="674" unicode="Ã"/><glyph d="M289 714h97l277 -714h-100l-75 199h-306l-75 -199h-96zM460 279l-126 331l-124 -331h250zM201 892h91v-102h-91v102zM380 892h92v-102h-92v102z" glyph-name="Adieresis" horiz-adv-x="674" unicode="Ä"/><glyph d="M279 689q-21 12 -34 34.5t-13 54.5q0 52 31 78t73 26q21 0 40 -6.5t33.5 -19.5t23 -32.5t8.5 -45.5q0 -32 -13 -53.5t-33 -34.5l268 -690h-100l-75 199h-306l-75 -199h-96zM460 279l-126 331l-124 -331h250zM336 727q49 0 49 51q0 29 -13 41.5t-36 12.5t-36 -12.5 t-13 -41.5q0 -26 13 -38.5t36 -12.5z" glyph-name="Aring" horiz-adv-x="674" unicode="Å"/><glyph d="M440 714h546v-81h-347v-224h327v-82h-327v-246h366l-15 -81h-439v237h-301l-140 -237h-105zM551 316v317h-66l-189 -317h255z" glyph-name="AE" horiz-adv-x="1039" unicode="Æ"/><glyph d="M276 -159q20 -3 34.5 -4t28.5 -1q31 0 44 9t13 26t-14.5 25t-56.5 8h-21l29 80q-65 6 -116.5 34t-87.5 75.5t-55.5 113.5t-19.5 149q0 90 24 160t67 118t101.5 73t126.5 25q66 0 114 -17t81.5 -48t54 -74t31.5 -95l-90 -15q-9 39 -23.5 70.5t-37 53.5t-54 33.5 t-76.5 11.5q-53 0 -94.5 -21.5t-70 -60t-43.5 -93t-15 -120.5t15 -120.5t43.5 -93.5t70 -60t95.5 -21q49 0 83.5 12.5t57 35.5t35.5 55t19 70h95q-6 -53 -25.5 -97.5t-53.5 -78t-82 -53.5t-112 -23l-14 -37q28 -3 46 -11t29 -19t15.5 -24t4.5 -28q0 -47 -35.5 -65.5 t-96.5 -18.5q-15 0 -30 1t-34 4v56z" glyph-name="Ccedilla" horiz-adv-x="710" unicode="Ç"/><glyph d="M79 714h462v-81h-370v-224h350v-82h-350v-246h389l-15 -81h-466v714zM282 908l117 -135h-87l-138 135h108z" glyph-name="Egrave" horiz-adv-x="594" unicode="È"/><glyph d="M79 714h462v-81h-370v-224h350v-82h-350v-246h389l-15 -81h-466v714zM349 908h108l-138 -135h-87z" glyph-name="Eacute" horiz-adv-x="594" unicode="É"/><glyph d="M79 714h462v-81h-370v-224h350v-82h-350v-246h389l-15 -81h-466v714zM269 908h87l115 -135h-82l-77 79l-77 -79h-82z" glyph-name="Ecircumflex" horiz-adv-x="594" unicode="Ê"/><glyph d="M79 714h462v-81h-370v-224h350v-82h-350v-246h389l-15 -81h-466v714zM177 892h91v-102h-91v102zM356 892h92v-102h-92v102z" glyph-name="Edieresis" horiz-adv-x="594" unicode="Ë"/><glyph d="M79 714h92v-714h-92v714zM77 908l117 -135h-87l-138 135h108z" glyph-name="Igrave" horiz-adv-x="250" unicode="Ì"/><glyph d="M79 714h92v-714h-92v714zM175 908h108l-138 -135h-87z" glyph-name="Iacute" horiz-adv-x="250" unicode="Í"/><glyph d="M79 714h92v-714h-92v714zM82 908h87l115 -135h-82l-77 79l-77 -79h-82z" glyph-name="Icircumflex" horiz-adv-x="250" unicode="Î"/><glyph d="M79 714h92v-714h-92v714zM-10 892h91v-102h-91v102zM169 892h92v-102h-92v102z" glyph-name="Idieresis" horiz-adv-x="250" unicode="Ï"/><glyph d="M92 330h-82v78h82v306h250q78 0 139.5 -21.5t104 -65.5t65.5 -110t23 -155q0 -90 -24.5 -158t-70.5 -113t-112 -68t-148 -23h-227v330zM323 80q133 0 194 74.5t61 205.5q0 65 -13.5 116t-42 86.5t-73.5 54t-107 18.5h-158v-227h182v-78h-182v-250h139z" glyph-name="Eth" horiz-adv-x="727" unicode="Ð"/><glyph d="M79 714h91l363 -567v567h89v-714h-88l-366 564v-564h-89v714zM174 779q0 58 28 88t77 30q25 0 43.5 -8.5t34.5 -18t31 -18t33 -8.5q26 0 36 14t10 37h66q0 -59 -28 -88.5t-77 -29.5q-25 0 -43.5 8.5t-34.5 18t-31 18t-33 8.5q-26 0 -36 -14t-10 -37h-66z" glyph-name="Ntilde" horiz-adv-x="701" unicode="Ñ"/><glyph d="M383 -18q-73 0 -133.5 24.5t-104 72t-67.5 117.5t-24 160t24.5 160t68 118t104 73t132.5 25q73 0 133.5 -24.5t103.5 -72t67 -117t24 -159.5t-23.5 -160.5t-66.5 -118.5t-103.5 -73t-134.5 -25zM383 62q57 0 100.5 21t72.5 59.5t44 93t15 121.5q0 66 -15 120.5 t-44.5 93.5t-72.5 60t-100 21q-58 0 -101.5 -21t-73 -60t-44 -93.5t-14.5 -120.5q0 -67 14.5 -121.5t43.5 -93t72.5 -59.5t102.5 -21zM350 908l117 -135h-87l-138 135h108z" glyph-name="Ograve" horiz-adv-x="765" unicode="Ò"/><glyph d="M383 -18q-73 0 -133.5 24.5t-104 72t-67.5 117.5t-24 160t24.5 160t68 118t104 73t132.5 25q73 0 133.5 -24.5t103.5 -72t67 -117t24 -159.5t-23.5 -160.5t-66.5 -118.5t-103.5 -73t-134.5 -25zM383 62q57 0 100.5 21t72.5 59.5t44 93t15 121.5q0 66 -15 120.5 t-44.5 93.5t-72.5 60t-100 21q-58 0 -101.5 -21t-73 -60t-44 -93.5t-14.5 -120.5q0 -67 14.5 -121.5t43.5 -93t72.5 -59.5t102.5 -21zM418 908h108l-138 -135h-87z" glyph-name="Oacute" horiz-adv-x="765" unicode="Ó"/><glyph d="M383 -18q-73 0 -133.5 24.5t-104 72t-67.5 117.5t-24 160t24.5 160t68 118t104 73t132.5 25q73 0 133.5 -24.5t103.5 -72t67 -117t24 -159.5t-23.5 -160.5t-66.5 -118.5t-103.5 -73t-134.5 -25zM383 62q57 0 100.5 21t72.5 59.5t44 93t15 121.5q0 66 -15 120.5 t-44.5 93.5t-72.5 60t-100 21q-58 0 -101.5 -21t-73 -60t-44 -93.5t-14.5 -120.5q0 -67 14.5 -121.5t43.5 -93t72.5 -59.5t102.5 -21zM339 908h87l115 -135h-82l-77 79l-77 -79h-82z" glyph-name="Ocircumflex" horiz-adv-x="765" unicode="Ô"/><glyph d="M383 -18q-73 0 -133.5 24.5t-104 72t-67.5 117.5t-24 160t24.5 160t68 118t104 73t132.5 25q73 0 133.5 -24.5t103.5 -72t67 -117t24 -159.5t-23.5 -160.5t-66.5 -118.5t-103.5 -73t-134.5 -25zM383 62q57 0 100.5 21t72.5 59.5t44 93t15 121.5q0 66 -15 120.5 t-44.5 93.5t-72.5 60t-100 21q-58 0 -101.5 -21t-73 -60t-44 -93.5t-14.5 -120.5q0 -67 14.5 -121.5t43.5 -93t72.5 -59.5t102.5 -21zM203 779q0 58 28 88t77 30q25 0 43.5 -8.5t34.5 -18t31 -18t33 -8.5q26 0 36 14t10 37h66q0 -59 -28 -88.5t-77 -29.5q-25 0 -43.5 8.5 t-34.5 18t-31 18t-33 8.5q-26 0 -36 -14t-10 -37h-66z" glyph-name="Otilde" horiz-adv-x="765" unicode="Õ"/><glyph d="M383 -18q-73 0 -133.5 24.5t-104 72t-67.5 117.5t-24 160t24.5 160t68 118t104 73t132.5 25q73 0 133.5 -24.5t103.5 -72t67 -117t24 -159.5t-23.5 -160.5t-66.5 -118.5t-103.5 -73t-134.5 -25zM383 62q57 0 100.5 21t72.5 59.5t44 93t15 121.5q0 66 -15 120.5 t-44.5 93.5t-72.5 60t-100 21q-58 0 -101.5 -21t-73 -60t-44 -93.5t-14.5 -120.5q0 -67 14.5 -121.5t43.5 -93t72.5 -59.5t102.5 -21zM247 892h91v-102h-91v102zM426 892h92v-102h-92v102z" glyph-name="Odieresis" horiz-adv-x="765" unicode="Ö"/><glyph d="M88 183l155 154l-162 163l53 53l162 -160l162 160l53 -53l-162 -163l155 -154l-53 -55l-155 155l-155 -155z" glyph-name="multiply" unicode="×"/><glyph d="M151 72q-46 48 -71.5 119t-25.5 165q0 90 24.5 160t68 118t104 73t132.5 25q100 0 175 -46l53 81l57 -40l-55 -84q47 -48 72.5 -119t25.5 -165q0 -90 -23.5 -160.5t-66.5 -118.5t-103.5 -73t-134.5 -25q-100 0 -177 46l-54 -81l-57 39zM253 99q52 -37 130 -37 q57 0 100.5 21t72.5 59.5t44 93t15 121.5q0 129 -55 207zM510 614q-26 18 -57.5 28t-69.5 10q-58 0 -101.5 -21t-73 -60t-44 -93.5t-14.5 -120.5q0 -131 53 -208z" glyph-name="Oslash" horiz-adv-x="765" unicode="Ø"/><glyph d="M71 714h92v-431q0 -111 41.5 -166t137.5 -55q97 0 137 55.5t40 165.5v431h92v-431q0 -80 -18.5 -136.5t-53 -93.5t-85 -54t-113.5 -17q-129 0 -199.5 72t-70.5 233v427zM303 908l117 -135h-87l-138 135h108z" glyph-name="Ugrave" horiz-adv-x="682" unicode="Ù"/><glyph d="M71 714h92v-431q0 -111 41.5 -166t137.5 -55q97 0 137 55.5t40 165.5v431h92v-431q0 -80 -18.5 -136.5t-53 -93.5t-85 -54t-113.5 -17q-129 0 -199.5 72t-70.5 233v427zM384 908h108l-138 -135h-87z" glyph-name="Uacute" horiz-adv-x="682" unicode="Ú"/><glyph d="M71 714h92v-431q0 -111 41.5 -166t137.5 -55q97 0 137 55.5t40 165.5v431h92v-431q0 -80 -18.5 -136.5t-53 -93.5t-85 -54t-113.5 -17q-129 0 -199.5 72t-70.5 233v427zM297 908h87l115 -135h-82l-77 79l-77 -79h-82z" glyph-name="Ucircumflex" horiz-adv-x="682" unicode="Û"/><glyph d="M71 714h92v-431q0 -111 41.5 -166t137.5 -55q97 0 137 55.5t40 165.5v431h92v-431q0 -80 -18.5 -136.5t-53 -93.5t-85 -54t-113.5 -17q-129 0 -199.5 72t-70.5 233v427zM205 892h91v-102h-91v102zM384 892h92v-102h-92v102z" glyph-name="Udieresis" horiz-adv-x="682" unicode="Ü"/><glyph d="M262 303l-249 411h106l189 -330l194 330h97l-244 -411v-303h-93v303zM350 908h108l-138 -135h-87z" glyph-name="Yacute" horiz-adv-x="613" unicode="Ý"/><glyph d="M79 714h91v-133h148q79 0 130.5 -17t81 -46.5t41 -68t11.5 -80.5q0 -46 -12 -87t-42 -71.5t-81 -48.5t-129 -18h-148v-144h-91v714zM317 222q52 0 86 10t53 28.5t26.5 45.5t7.5 60q0 34 -8 59.5t-28 43t-53.5 26t-84.5 8.5h-146v-281h147z" glyph-name="Thorn" horiz-adv-x="626" unicode="Þ"/><glyph d="M68 516q0 97 56 151.5t152 54.5q103 0 154 -46t51 -126q0 -57 -22.5 -95t-70.5 -61q31 -7 58.5 -22.5t48 -39.5t32.5 -57.5t12 -75.5q0 -43 -11.5 -81t-37 -66.5t-67 -45.5t-100.5 -17q-30 0 -59 5t-49 12l15 68q14 -5 38 -9.5t48 -4.5q40 0 66 10t41.5 29t22 45t6.5 58 q0 75 -46 108.5t-125 33.5h-49v71h41q122 0 122 128q0 23 -6.5 43t-20.5 35t-35.5 23.5t-52.5 8.5q-63 0 -95 -35.5t-32 -103.5v-514h-85v516z" glyph-name="germandbls" horiz-adv-x="576" unicode="ß"/><glyph d="M389 71q-28 -34 -71 -58.5t-107 -24.5q-39 0 -71.5 9.5t-56 29t-36.5 48.5t-13 68q0 53 22.5 86t60 52t84.5 27t97 10l89 3v20q0 66 -28 95t-91 29q-62 0 -91 -20.5t-38 -56.5l-79 9q14 71 67 103.5t144 32.5q56 0 94.5 -13.5t62.5 -38.5t34.5 -62t10.5 -83v-336h-84v71z M387 259l-83 -3q-53 -2 -88 -10t-55.5 -21.5t-29 -33.5t-8.5 -46q0 -39 23.5 -62.5t77.5 -23.5q77 0 120 38t43 104v58zM136 733h107l114 -142h-86z" glyph-name="agrave" horiz-adv-x="538" unicode="à"/><glyph d="M389 71q-28 -34 -71 -58.5t-107 -24.5q-39 0 -71.5 9.5t-56 29t-36.5 48.5t-13 68q0 53 22.5 86t60 52t84.5 27t97 10l89 3v20q0 66 -28 95t-91 29q-62 0 -91 -20.5t-38 -56.5l-79 9q14 71 67 103.5t144 32.5q56 0 94.5 -13.5t62.5 -38.5t34.5 -62t10.5 -83v-336h-84v71z M387 259l-83 -3q-53 -2 -88 -10t-55.5 -21.5t-29 -33.5t-8.5 -46q0 -39 23.5 -62.5t77.5 -23.5q77 0 120 38t43 104v58zM310 733h107l-135 -142h-86z" glyph-name="aacute" horiz-adv-x="538" unicode="á"/><glyph d="M389 71q-28 -34 -71 -58.5t-107 -24.5q-39 0 -71.5 9.5t-56 29t-36.5 48.5t-13 68q0 53 22.5 86t60 52t84.5 27t97 10l89 3v20q0 66 -28 95t-91 29q-62 0 -91 -20.5t-38 -56.5l-79 9q14 71 67 103.5t144 32.5q56 0 94.5 -13.5t62.5 -38.5t34.5 -62t10.5 -83v-336h-84v71z M387 259l-83 -3q-53 -2 -88 -10t-55.5 -21.5t-29 -33.5t-8.5 -46q0 -39 23.5 -62.5t77.5 -23.5q77 0 120 38t43 104v58zM225 733h87l115 -142h-81l-78 88l-78 -88h-80z" glyph-name="acircumflex" horiz-adv-x="538" unicode="â"/><glyph d="M389 71q-28 -34 -71 -58.5t-107 -24.5q-39 0 -71.5 9.5t-56 29t-36.5 48.5t-13 68q0 53 22.5 86t60 52t84.5 27t97 10l89 3v20q0 66 -28 95t-91 29q-62 0 -91 -20.5t-38 -56.5l-79 9q14 71 67 103.5t144 32.5q56 0 94.5 -13.5t62.5 -38.5t34.5 -62t10.5 -83v-336h-84v71z M387 259l-83 -3q-53 -2 -88 -10t-55.5 -21.5t-29 -33.5t-8.5 -46q0 -39 23.5 -62.5t77.5 -23.5q77 0 120 38t43 104v58zM90 605q0 58 27 87.5t75 29.5q24 0 42.5 -8t34.5 -18t31.5 -18t32.5 -8q24 0 34 13t10 36h64q0 -58 -27 -87.5t-75 -29.5q-24 0 -42.5 8.5t-34.5 18 t-31 18t-32 8.5q-25 0 -35 -13.5t-10 -36.5h-64z" glyph-name="atilde" horiz-adv-x="538" unicode="ã"/><glyph d="M389 71q-28 -34 -71 -58.5t-107 -24.5q-39 0 -71.5 9.5t-56 29t-36.5 48.5t-13 68q0 53 22.5 86t60 52t84.5 27t97 10l89 3v20q0 66 -28 95t-91 29q-62 0 -91 -20.5t-38 -56.5l-79 9q14 71 67 103.5t144 32.5q56 0 94.5 -13.5t62.5 -38.5t34.5 -62t10.5 -83v-336h-84v71z M387 259l-83 -3q-53 -2 -88 -10t-55.5 -21.5t-29 -33.5t-8.5 -46q0 -39 23.5 -62.5t77.5 -23.5q77 0 120 38t43 104v58zM135 714h88v-99h-88v99zM309 714h89v-99h-89v99z" glyph-name="adieresis" horiz-adv-x="538" unicode="ä"/><glyph d="M389 71q-28 -34 -71 -58.5t-107 -24.5q-39 0 -71.5 9.5t-56 29t-36.5 48.5t-13 68q0 53 22.5 86t60 52t84.5 27t97 10l89 3v20q0 66 -28 95t-91 29q-62 0 -91 -20.5t-38 -56.5l-79 9q14 71 67 103.5t144 32.5q56 0 94.5 -13.5t62.5 -38.5t34.5 -62t10.5 -83v-336h-84v71z M387 259l-83 -3q-53 -2 -88 -10t-55.5 -21.5t-29 -33.5t-8.5 -46q0 -39 23.5 -62.5t77.5 -23.5q77 0 120 38t43 104v58zM166 689q0 50 30 76t71 26q20 0 38.5 -6.5t33 -19.5t23 -32t8.5 -44t-8.5 -44t-23 -31.5t-33 -18.5t-38.5 -6q-41 0 -71 25t-30 75zM267 638 q23 0 35.5 12.5t12.5 38.5q0 27 -12.5 39.5t-35.5 12.5q-22 0 -34.5 -12.5t-12.5 -39.5q0 -26 12.5 -38.5t34.5 -12.5z" glyph-name="aring" horiz-adv-x="538" unicode="å"/><glyph d="M60 397q14 65 59.5 97.5t123.5 36.5q18 2 35 1.5t33 -2.5q94 -13 129 -89q34 48 79.5 70t99.5 22q59 0 101.5 -19t70 -52.5t40.5 -79.5t13 -101v-44h-378q1 -39 11 -72.5t29.5 -58t47.5 -38.5t66 -14q62 0 91.5 24.5t40.5 66.5h84q-13 -75 -66 -118t-151 -43 q-72 0 -122.5 30.5t-75.5 82.5q-12 -19 -29.5 -38.5t-42 -35t-57.5 -25.5t-75 -10q-81 0 -132 38.5t-51 116.5q0 53 22 86t58.5 52t83 27t94.5 10l89 3v15q0 68 -26 98.5t-90 30.5q-60 0 -88.5 -20.5t-37.5 -56.5zM381 259l-83 -3q-52 -2 -85.5 -10t-53.5 -21.5t-28 -33.5 t-8 -46q0 -33 17 -55t54 -28q16 -3 38 -3q73 2 111 40.5t38 101.5v58zM758 302q0 37 -8 67t-25 51.5t-43.5 33.5t-63.5 12q-66 0 -104 -42t-46 -122h290z" glyph-name="ae" horiz-adv-x="892" unicode="æ"/><glyph d="M188 -148q19 -2 32.5 -3t27.5 -1q30 0 43 8t13 23q0 17 -14.5 24.5t-54.5 7.5h-21l28 77q-95 15 -143.5 86t-48.5 183q0 62 17 113t49 87t78 56t104 20q93 0 144 -45.5t65 -125.5l-87 -16q-5 25 -13.5 46t-23.5 36.5t-36.5 24t-51.5 8.5q-41 0 -70 -15.5t-47.5 -43 t-27 -64.5t-8.5 -79t8 -79t26 -64.5t47 -43.5t71 -16q63 0 93.5 32t39.5 87h88q-13 -88 -66.5 -138.5t-151.5 -52.5l-11 -32q27 -3 44 -10.5t27.5 -18t14.5 -23.5t4 -27q0 -45 -34 -63t-93 -18q-14 0 -29 1t-32 4v55z" glyph-name="ccedilla" horiz-adv-x="559" unicode="ç"/><glyph d="M514 145q-13 -75 -66.5 -118t-153.5 -43q-118 0 -181 71.5t-63 199.5q0 67 18 119t50.5 87t77.5 53.5t98 18.5q60 0 103 -19t70.5 -52.5t41 -79.5t13.5 -101v-44h-384q0 -39 10.5 -72.5t30 -58t48.5 -38.5t67 -14q65 0 95 24.5t41 66.5h84zM435 302q0 37 -8 67t-25 51.5 t-44 33.5t-65 12q-69 0 -107.5 -42t-45.5 -122h295zM152 733h107l114 -142h-86z" glyph-name="egrave" horiz-adv-x="570" unicode="è"/><glyph d="M514 145q-13 -75 -66.5 -118t-153.5 -43q-118 0 -181 71.5t-63 199.5q0 67 18 119t50.5 87t77.5 53.5t98 18.5q60 0 103 -19t70.5 -52.5t41 -79.5t13.5 -101v-44h-384q0 -39 10.5 -72.5t30 -58t48.5 -38.5t67 -14q65 0 95 24.5t41 66.5h84zM435 302q0 37 -8 67t-25 51.5 t-44 33.5t-65 12q-69 0 -107.5 -42t-45.5 -122h295zM338 733h107l-135 -142h-86z" glyph-name="eacute" horiz-adv-x="570" unicode="é"/><glyph d="M514 145q-13 -75 -66.5 -118t-153.5 -43q-118 0 -181 71.5t-63 199.5q0 67 18 119t50.5 87t77.5 53.5t98 18.5q60 0 103 -19t70.5 -52.5t41 -79.5t13.5 -101v-44h-384q0 -39 10.5 -72.5t30 -58t48.5 -38.5t67 -14q65 0 95 24.5t41 66.5h84zM435 302q0 37 -8 67t-25 51.5 t-44 33.5t-65 12q-69 0 -107.5 -42t-45.5 -122h295zM248 733h87l115 -142h-81l-78 88l-78 -88h-80z" glyph-name="ecircumflex" horiz-adv-x="570" unicode="ê"/><glyph d="M514 145q-13 -75 -66.5 -118t-153.5 -43q-118 0 -181 71.5t-63 199.5q0 67 18 119t50.5 87t77.5 53.5t98 18.5q60 0 103 -19t70.5 -52.5t41 -79.5t13.5 -101v-44h-384q0 -39 10.5 -72.5t30 -58t48.5 -38.5t67 -14q65 0 95 24.5t41 66.5h84zM435 302q0 37 -8 67t-25 51.5 t-44 33.5t-65 12q-69 0 -107.5 -42t-45.5 -122h295zM160 714h88v-99h-88v99zM334 714h89v-99h-89v99z" glyph-name="edieresis" horiz-adv-x="570" unicode="ë"/><glyph d="M69 517h87v-517h-87v517zM-51 733h107l114 -142h-86z" glyph-name="igrave" horiz-adv-x="225" unicode="ì"/><glyph d="M69 517h87v-517h-87v517zM174 733h107l-135 -142h-86z" glyph-name="iacute" horiz-adv-x="225" unicode="í"/><glyph d="M69 517h87v-517h-87v517zM70 733h87l115 -142h-81l-78 88l-78 -88h-80z" glyph-name="icircumflex" horiz-adv-x="225" unicode="î"/><glyph d="M69 517h87v-517h-87v517zM-18 714h88v-99h-88v99zM156 714h89v-99h-89v99z" glyph-name="idieresis" horiz-adv-x="225" unicode="ï"/><glyph d="M191 583l56 57q-26 8 -54.5 13t-60.5 7l13 70q45 -5 84.5 -12.5t74.5 -21.5l64 63l40 -42l-47 -47q190 -106 190 -393q0 -70 -18 -124.5t-51 -92t-79.5 -57t-103.5 -19.5q-58 0 -104 18.5t-78.5 51.5t-49.5 79.5t-17 102.5t18 103t50 80.5t76 52.5t95 19q55 0 92.5 -16.5 t68.5 -49.5q-27 136 -142 193l-77 -76zM459 252q0 74 -37 116q-23 28 -53.5 39.5t-73.5 11.5q-38 0 -67 -14.5t-48 -39t-28.5 -57.5t-9.5 -70q0 -38 9.5 -70.5t29 -57.5t49 -39t70.5 -14q40 0 70 14t50 38.5t29.5 57.5t9.5 71v14z" glyph-name="eth" horiz-adv-x="601" unicode="ð"/><glyph d="M67 517h86v-79q38 51 84 73t97 22q88 0 130.5 -48t42.5 -141v-344h-87v327q0 72 -26 101.5t-80 29.5q-29 0 -57.5 -10t-51.5 -32q-25 -22 -38 -46.5t-13 -63.5v-306h-87v517zM115 605q0 58 27 87.5t75 29.5q24 0 42.5 -8t34.5 -18t31.5 -18t32.5 -8q24 0 34 13t10 36h64 q0 -58 -27 -87.5t-75 -29.5q-24 0 -42.5 8.5t-34.5 18t-31 18t-32 8.5q-25 0 -35 -13.5t-10 -36.5h-64z" glyph-name="ntilde" horiz-adv-x="570" unicode="ñ"/><glyph d="M299 -16q-59 0 -105 19t-78 54t-49 86t-17 114t18 114t51 87t79.5 55.5t103.5 19.5q58 0 104 -19t78.5 -54.5t49.5 -85.5t17 -113q0 -64 -17.5 -115t-50 -87t-79.5 -55.5t-105 -19.5zM300 56q42 0 72 15t49.5 42t28.5 64.5t9 82.5q0 44 -9 81t-28.5 63.5t-49.5 41.5 t-72 15t-71.5 -15t-49 -41.5t-28.5 -63.5t-9 -82t9 -82t28 -64t49 -42t72 -15zM163 733h107l114 -142h-86z" glyph-name="ograve" horiz-adv-x="601" unicode="ò"/><glyph d="M299 -16q-59 0 -105 19t-78 54t-49 86t-17 114t18 114t51 87t79.5 55.5t103.5 19.5q58 0 104 -19t78.5 -54.5t49.5 -85.5t17 -113q0 -64 -17.5 -115t-50 -87t-79.5 -55.5t-105 -19.5zM300 56q42 0 72 15t49.5 42t28.5 64.5t9 82.5q0 44 -9 81t-28.5 63.5t-49.5 41.5 t-72 15t-71.5 -15t-49 -41.5t-28.5 -63.5t-9 -82t9 -82t28 -64t49 -42t72 -15zM343 733h107l-135 -142h-86z" glyph-name="oacute" horiz-adv-x="601" unicode="ó"/><glyph d="M299 -16q-59 0 -105 19t-78 54t-49 86t-17 114t18 114t51 87t79.5 55.5t103.5 19.5q58 0 104 -19t78.5 -54.5t49.5 -85.5t17 -113q0 -64 -17.5 -115t-50 -87t-79.5 -55.5t-105 -19.5zM300 56q42 0 72 15t49.5 42t28.5 64.5t9 82.5q0 44 -9 81t-28.5 63.5t-49.5 41.5 t-72 15t-71.5 -15t-49 -41.5t-28.5 -63.5t-9 -82t9 -82t28 -64t49 -42t72 -15zM257 733h87l115 -142h-81l-78 88l-78 -88h-80z" glyph-name="ocircumflex" horiz-adv-x="601" unicode="ô"/><glyph d="M299 -16q-59 0 -105 19t-78 54t-49 86t-17 114t18 114t51 87t79.5 55.5t103.5 19.5q58 0 104 -19t78.5 -54.5t49.5 -85.5t17 -113q0 -64 -17.5 -115t-50 -87t-79.5 -55.5t-105 -19.5zM300 56q42 0 72 15t49.5 42t28.5 64.5t9 82.5q0 44 -9 81t-28.5 63.5t-49.5 41.5 t-72 15t-71.5 -15t-49 -41.5t-28.5 -63.5t-9 -82t9 -82t28 -64t49 -42t72 -15zM125 605q0 58 27 87.5t75 29.5q24 0 42.5 -8t34.5 -18t31.5 -18t32.5 -8q24 0 34 13t10 36h64q0 -58 -27 -87.5t-75 -29.5q-24 0 -42.5 8.5t-34.5 18t-31 18t-32 8.5q-25 0 -35 -13.5t-10 -36.5 h-64z" glyph-name="otilde" horiz-adv-x="601" unicode="õ"/><glyph d="M299 -16q-59 0 -105 19t-78 54t-49 86t-17 114t18 114t51 87t79.5 55.5t103.5 19.5q58 0 104 -19t78.5 -54.5t49.5 -85.5t17 -113q0 -64 -17.5 -115t-50 -87t-79.5 -55.5t-105 -19.5zM300 56q42 0 72 15t49.5 42t28.5 64.5t9 82.5q0 44 -9 81t-28.5 63.5t-49.5 41.5 t-72 15t-71.5 -15t-49 -41.5t-28.5 -63.5t-9 -82t9 -82t28 -64t49 -42t72 -15zM169 714h88v-99h-88v99zM343 714h89v-99h-89v99z" glyph-name="odieresis" horiz-adv-x="601" unicode="ö"/><glyph d="M250 574h93v-107h-93v107zM250 214h93v-107h-93v107zM80 380h432v-79h-432v79z" glyph-name="divide" unicode="÷"/><glyph d="M122 50q-72 72 -72 207q0 63 18 114t51 87t79.5 55.5t103.5 19.5q72 0 125 -29l44 65l53 -37l-45 -67q35 -36 53.5 -87t18.5 -117q0 -64 -17.5 -115t-50 -87t-79.5 -55.5t-105 -19.5q-36 0 -67 7t-57 20l-47 -69l-53 38zM384 439q-17 11 -37.5 16.5t-46.5 5.5 q-42 0 -71.5 -15t-49 -41.5t-28.5 -63.5t-9 -82q0 -41 7 -75t23 -60zM218 76q34 -20 82 -20q42 0 72 15t49.5 42t28.5 64.5t9 82.5q0 39 -7 72.5t-22 59.5z" glyph-name="oslash" horiz-adv-x="601" unicode="ø"/><glyph d="M64 517h87v-326q0 -72 23.5 -102t76.5 -30q58 0 105 42q25 22 38 46.5t13 63.5v306h87v-517h-86v80q-38 -50 -82 -73t-95 -23q-88 0 -127.5 47.5t-39.5 142.5v343zM134 733h107l114 -142h-86z" glyph-name="ugrave" horiz-adv-x="561" unicode="ù"/><glyph d="M64 517h87v-326q0 -72 23.5 -102t76.5 -30q58 0 105 42q25 22 38 46.5t13 63.5v306h87v-517h-86v80q-38 -50 -82 -73t-95 -23q-88 0 -127.5 47.5t-39.5 142.5v343zM324 733h107l-135 -142h-86z" glyph-name="uacute" horiz-adv-x="561" unicode="ú"/><glyph d="M64 517h87v-326q0 -72 23.5 -102t76.5 -30q58 0 105 42q25 22 38 46.5t13 63.5v306h87v-517h-86v80q-38 -50 -82 -73t-95 -23q-88 0 -127.5 47.5t-39.5 142.5v343zM237 733h87l115 -142h-81l-78 88l-78 -88h-80z" glyph-name="ucircumflex" horiz-adv-x="561" unicode="û"/><glyph d="M64 517h87v-326q0 -72 23.5 -102t76.5 -30q58 0 105 42q25 22 38 46.5t13 63.5v306h87v-517h-86v80q-38 -50 -82 -73t-95 -23q-88 0 -127.5 47.5t-39.5 142.5v343zM148 714h88v-99h-88v99zM322 714h89v-99h-89v99z" glyph-name="udieresis" horiz-adv-x="561" unicode="ü"/><glyph d="M65 -110q28 -10 56 -10q32 0 49.5 16.5t34.5 61.5l21 55l-219 504h101l163 -406l149 406h96l-226 -566q-14 -35 -28 -61.5t-31 -45.5t-40.5 -28.5t-57.5 -9.5q-24 0 -43 3t-42 11zM302 733h107l-135 -142h-86z" glyph-name="yacute" horiz-adv-x="523" unicode="ý"/><glyph d="M67 714h87v-269q33 43 75 65.5t98 22.5q55 0 96.5 -20t69 -56t41 -85.5t13.5 -109.5q0 -64 -16 -115.5t-46 -87.5t-72.5 -55.5t-95.5 -19.5q-44 0 -86 17.5t-77 62.5v-258h-87v908zM153 244q0 -50 11.5 -85.5t31.5 -58.5t48 -33.5t61 -10.5q32 0 59.5 11t47.5 35.5 t31.5 63.5t11.5 95q0 57 -12.5 95.5t-32.5 61.5t-45.5 33t-52.5 10q-34 0 -63 -11.5t-50.5 -34t-33.5 -57t-12 -79.5v-35z" glyph-name="thorn" horiz-adv-x="597" unicode="þ"/><glyph d="M65 -110q28 -10 56 -10q32 0 49.5 16.5t34.5 61.5l21 55l-219 504h101l163 -406l149 406h96l-226 -566q-14 -35 -28 -61.5t-31 -45.5t-40.5 -28.5t-57.5 -9.5q-24 0 -43 3t-42 11zM130 714h88v-99h-88v99zM304 714h89v-99h-89v99z" glyph-name="ydieresis" horiz-adv-x="523" unicode="ÿ"/><glyph d="M289 714h97l277 -714h-100l-75 199h-306l-75 -199h-96zM460 279l-126 331l-124 -331h250zM190 869h292v-74h-292v74z" glyph-name="Amacron" horiz-adv-x="674" unicode="Ā"/><glyph d="M389 71q-28 -34 -71 -58.5t-107 -24.5q-39 0 -71.5 9.5t-56 29t-36.5 48.5t-13 68q0 53 22.5 86t60 52t84.5 27t97 10l89 3v20q0 66 -28 95t-91 29q-62 0 -91 -20.5t-38 -56.5l-79 9q14 71 67 103.5t144 32.5q56 0 94.5 -13.5t62.5 -38.5t34.5 -62t10.5 -83v-336h-84v71z M387 259l-83 -3q-53 -2 -88 -10t-55.5 -21.5t-29 -33.5t-8.5 -46q0 -39 23.5 -62.5t77.5 -23.5q77 0 120 38t43 104v58zM132 693h261v-71h-261v71z" glyph-name="amacron" horiz-adv-x="538" unicode="ā"/><glyph d="M289 714h97l277 -714h-100l-75 199h-306l-75 -199h-96zM460 279l-126 331l-124 -331h250zM266 912q0 -42 20 -61t50 -19q29 0 50 19t21 61h68q0 -68 -37 -103.5t-102 -35.5t-101.5 35.5t-36.5 103.5h68z" glyph-name="Abreve" horiz-adv-x="674" unicode="Ă"/><glyph d="M389 71q-28 -34 -71 -58.5t-107 -24.5q-39 0 -71.5 9.5t-56 29t-36.5 48.5t-13 68q0 53 22.5 86t60 52t84.5 27t97 10l89 3v20q0 66 -28 95t-91 29q-62 0 -91 -20.5t-38 -56.5l-79 9q14 71 67 103.5t144 32.5q56 0 94.5 -13.5t62.5 -38.5t34.5 -62t10.5 -83v-336h-84v71z M387 259l-83 -3q-53 -2 -88 -10t-55.5 -21.5t-29 -33.5t-8.5 -46q0 -39 23.5 -62.5t77.5 -23.5q77 0 120 38t43 104v58zM196 729q0 -42 20.5 -61.5t49.5 -19.5t50 19.5t21 61.5h66q0 -67 -36.5 -103t-100.5 -36t-100 36t-36 103h66z" glyph-name="abreve" horiz-adv-x="538" unicode="ă"/><glyph d="M289 714h97l277 -714q-66 -47 -66 -88q0 -21 12.5 -28t30.5 -7h13t12 1v-62q-5 -1 -14.5 -1.5t-17.5 -0.5q-64 0 -90.5 21.5t-26.5 60.5q0 27 17 52.5t51 51.5h-21l-75 199h-306l-75 -199h-96zM460 279l-126 331l-124 -331h250z" glyph-name="Aogonek" horiz-adv-x="674" unicode="Ą"/><glyph d="M477 -178q-7 -1 -15.5 -1.5t-16.5 -0.5q-63 0 -88 20.5t-25 58.5q0 52 67 101h-10v71q-28 -34 -71 -58.5t-107 -24.5q-39 0 -71.5 9.5t-56 29t-36.5 48.5t-13 68q0 53 22.5 86t60 52t84.5 27t97 10l89 3v20q0 66 -28 95t-91 29q-62 0 -91 -20.5t-38 -56.5l-79 9 q14 71 67 103.5t144 32.5q56 0 94.5 -13.5t62.5 -38.5t34.5 -62t10.5 -83v-336q-63 -47 -63 -86q0 -20 12.5 -27t29.5 -7h11.5t13.5 1v-59zM387 259l-83 -3q-53 -2 -88 -10t-55.5 -21.5t-29 -33.5t-8.5 -46q0 -39 23.5 -62.5t77.5 -23.5q77 0 120 38t43 104v58z" glyph-name="aogonek" horiz-adv-x="538" unicode="ą"/><glyph d="M664 235q-6 -54 -27 -100.5t-57 -80.5t-87.5 -53t-119.5 -19q-74 0 -133 25t-100 73t-63.5 117.5t-22.5 158.5q0 90 24 160t67 118t101.5 73t126.5 25q66 0 114 -17t81.5 -48t54 -74t31.5 -95l-90 -15q-9 39 -23.5 70.5t-37 53.5t-54 33.5t-76.5 11.5q-53 0 -94.5 -21.5 t-70 -60t-43.5 -93t-15 -120.5t15 -120.5t43.5 -93.5t70 -60t95.5 -21q49 0 83.5 12.5t57 35.5t35.5 55t19 70h95zM411 908h108l-138 -135h-87z" glyph-name="Cacute" horiz-adv-x="710" unicode="Ć"/><glyph d="M515 175q-13 -89 -68 -140t-155 -51q-59 0 -104.5 19t-76 54.5t-46 86t-15.5 113.5q0 62 17 113t49 87t78 56t104 20q93 0 144 -45.5t65 -125.5l-87 -16q-5 25 -13.5 46t-23.5 36.5t-36.5 24t-51.5 8.5q-41 0 -70 -15.5t-47.5 -43t-27 -64.5t-8.5 -79t8 -79t26 -64.5 t47 -43.5t71 -16q63 0 93.5 32t39.5 87h88zM330 733h107l-135 -142h-86z" glyph-name="cacute" horiz-adv-x="559" unicode="ć"/><glyph d="M664 235q-6 -54 -27 -100.5t-57 -80.5t-87.5 -53t-119.5 -19q-74 0 -133 25t-100 73t-63.5 117.5t-22.5 158.5q0 90 24 160t67 118t101.5 73t126.5 25q66 0 114 -17t81.5 -48t54 -74t31.5 -95l-90 -15q-9 39 -23.5 70.5t-37 53.5t-54 33.5t-76.5 11.5q-53 0 -94.5 -21.5 t-70 -60t-43.5 -93t-15 -120.5t15 -120.5t43.5 -93.5t70 -60t95.5 -21q49 0 83.5 12.5t57 35.5t35.5 55t19 70h95zM330 908h87l115 -135h-82l-77 79l-77 -79h-82z" glyph-name="Ccircumflex" horiz-adv-x="710" unicode="Ĉ"/><glyph d="M515 175q-13 -89 -68 -140t-155 -51q-59 0 -104.5 19t-76 54.5t-46 86t-15.5 113.5q0 62 17 113t49 87t78 56t104 20q93 0 144 -45.5t65 -125.5l-87 -16q-5 25 -13.5 46t-23.5 36.5t-36.5 24t-51.5 8.5q-41 0 -70 -15.5t-47.5 -43t-27 -64.5t-8.5 -79t8 -79t26 -64.5 t47 -43.5t71 -16q63 0 93.5 32t39.5 87h88zM252 733h87l115 -142h-81l-78 88l-78 -88h-80z" glyph-name="ccircumflex" horiz-adv-x="559" unicode="ĉ"/><glyph d="M664 235q-6 -54 -27 -100.5t-57 -80.5t-87.5 -53t-119.5 -19q-74 0 -133 25t-100 73t-63.5 117.5t-22.5 158.5q0 90 24 160t67 118t101.5 73t126.5 25q66 0 114 -17t81.5 -48t54 -74t31.5 -95l-90 -15q-9 39 -23.5 70.5t-37 53.5t-54 33.5t-76.5 11.5q-53 0 -94.5 -21.5 t-70 -60t-43.5 -93t-15 -120.5t15 -120.5t43.5 -93.5t70 -60t95.5 -21q49 0 83.5 12.5t57 35.5t35.5 55t19 70h95zM327 894h93v-105h-93v105z" glyph-name="Cdotaccent" horiz-adv-x="710" unicode="Ċ"/><glyph d="M515 175q-13 -89 -68 -140t-155 -51q-59 0 -104.5 19t-76 54.5t-46 86t-15.5 113.5q0 62 17 113t49 87t78 56t104 20q93 0 144 -45.5t65 -125.5l-87 -16q-5 25 -13.5 46t-23.5 36.5t-36.5 24t-51.5 8.5q-41 0 -70 -15.5t-47.5 -43t-27 -64.5t-8.5 -79t8 -79t26 -64.5 t47 -43.5t71 -16q63 0 93.5 32t39.5 87h88zM251 715h89v-101h-89v101z" glyph-name="cdotaccent" horiz-adv-x="559" unicode="ċ"/><glyph d="M664 235q-6 -54 -27 -100.5t-57 -80.5t-87.5 -53t-119.5 -19q-74 0 -133 25t-100 73t-63.5 117.5t-22.5 158.5q0 90 24 160t67 118t101.5 73t126.5 25q66 0 114 -17t81.5 -48t54 -74t31.5 -95l-90 -15q-9 39 -23.5 70.5t-37 53.5t-54 33.5t-76.5 11.5q-53 0 -94.5 -21.5 t-70 -60t-43.5 -93t-15 -120.5t15 -120.5t43.5 -93.5t70 -60t95.5 -21q49 0 83.5 12.5t57 35.5t35.5 55t19 70h95zM214 911h83l77 -80l77 80h81l-115 -134h-87z" glyph-name="Ccaron" horiz-adv-x="710" unicode="Č"/><glyph d="M515 175q-13 -89 -68 -140t-155 -51q-59 0 -104.5 19t-76 54.5t-46 86t-15.5 113.5q0 62 17 113t49 87t78 56t104 20q93 0 144 -45.5t65 -125.5l-87 -16q-5 25 -13.5 46t-23.5 36.5t-36.5 24t-51.5 8.5q-41 0 -70 -15.5t-47.5 -43t-27 -64.5t-8.5 -79t8 -79t26 -64.5 t47 -43.5t71 -16q63 0 93.5 32t39.5 87h88zM338 593h-87l-115 142h81l78 -88l78 88h80z" glyph-name="ccaron" horiz-adv-x="559" unicode="č"/><glyph d="M79 714h250q78 0 139.5 -21.5t104 -65.5t65.5 -110t23 -155q0 -90 -24.5 -158t-70.5 -113t-112 -68t-148 -23h-227v714zM310 80q133 0 194 74.5t61 205.5q0 65 -13.5 116t-42 86.5t-73.5 54t-107 18.5h-158v-555h139zM150 911h83l77 -80l77 80h81l-115 -134h-87z" glyph-name="Dcaron" horiz-adv-x="714" unicode="Ď"/><glyph d="M443 74q-32 -43 -74 -66.5t-99 -23.5t-98.5 21t-68.5 57.5t-40 86.5t-13 107q0 64 16 115.5t45.5 87.5t72 55t96.5 19q41 0 83 -16.5t78 -62.5v260h87v-714h-85v74zM444 274q0 62 -13.5 96.5t-44.5 58.5q-22 18 -44.5 25t-49.5 7q-32 0 -59.5 -11t-48 -35.5t-32 -63 t-11.5 -93.5q0 -57 12.5 -96t33 -62t46 -33t52.5 -10q29 0 52 7t46 24q30 24 45.5 60t15.5 91v35zM621 714h86l-46 -204h-67z" glyph-name="dcaron" horiz-adv-x="596" unicode="ď"/><glyph d="M92 330h-82v78h82v306h250q78 0 139.5 -21.5t104 -65.5t65.5 -110t23 -155q0 -90 -24.5 -158t-70.5 -113t-112 -68t-148 -23h-227v330zM323 80q133 0 194 74.5t61 205.5q0 65 -13.5 116t-42 86.5t-73.5 54t-107 18.5h-158v-227h182v-78h-182v-250h139z" glyph-name="Dcroat" horiz-adv-x="727" unicode="Đ"/><glyph d="M444 74q-32 -43 -74.5 -66.5t-99.5 -23.5t-98.5 21t-68.5 57t-40 83t-13 99q0 59 16 108t45.5 84t72 54.5t96.5 19.5q42 0 83.5 -16t78.5 -63v146h-169v63h169v74h87v-74h69v-63h-69v-577h-85v74zM444 256q0 58 -13.5 92t-43.5 58q-23 18 -45.5 25t-49.5 7 q-32 0 -59.5 -11.5t-48 -35t-32 -60t-11.5 -86.5q0 -52 12.5 -87.5t33 -58t46.5 -32.5t53 -10q29 0 51.5 7t45.5 24q30 24 45.5 58t15.5 81v29z" glyph-name="dcroat" horiz-adv-x="608" unicode="đ"/><glyph d="M79 714h462v-81h-370v-224h350v-82h-350v-246h389l-15 -81h-466v714zM167 869h292v-74h-292v74z" glyph-name="Emacron" horiz-adv-x="594" unicode="Ē"/><glyph d="M514 145q-13 -75 -66.5 -118t-153.5 -43q-118 0 -181 71.5t-63 199.5q0 67 18 119t50.5 87t77.5 53.5t98 18.5q60 0 103 -19t70.5 -52.5t41 -79.5t13.5 -101v-44h-384q0 -39 10.5 -72.5t30 -58t48.5 -38.5t67 -14q65 0 95 24.5t41 66.5h84zM435 302q0 37 -8 67t-25 51.5 t-44 33.5t-65 12q-69 0 -107.5 -42t-45.5 -122h295zM164 693h261v-71h-261v71z" glyph-name="emacron" horiz-adv-x="570" unicode="ē"/><glyph d="M79 714h462v-81h-370v-224h350v-82h-350v-246h389l-15 -81h-466v714zM243 912q0 -42 20 -61t50 -19q29 0 50 19t21 61h68q0 -68 -37 -103.5t-102 -35.5t-101.5 35.5t-36.5 103.5h68z" glyph-name="Ebreve" horiz-adv-x="594" unicode="Ĕ"/><glyph d="M514 145q-13 -75 -66.5 -118t-153.5 -43q-118 0 -181 71.5t-63 199.5q0 67 18 119t50.5 87t77.5 53.5t98 18.5q60 0 103 -19t70.5 -52.5t41 -79.5t13.5 -101v-44h-384q0 -39 10.5 -72.5t30 -58t48.5 -38.5t67 -14q65 0 95 24.5t41 66.5h84zM435 302q0 37 -8 67t-25 51.5 t-44 33.5t-65 12q-69 0 -107.5 -42t-45.5 -122h295zM224 729q0 -42 20.5 -61.5t49.5 -19.5t50 19.5t21 61.5h66q0 -67 -36.5 -103t-100.5 -36t-100 36t-36 103h66z" glyph-name="ebreve" horiz-adv-x="570" unicode="ĕ"/><glyph d="M79 714h462v-81h-370v-224h350v-82h-350v-246h389l-15 -81h-466v714zM267 894h93v-105h-93v105z" glyph-name="Edotaccent" horiz-adv-x="594" unicode="Ė"/><glyph d="M514 145q-13 -75 -66.5 -118t-153.5 -43q-118 0 -181 71.5t-63 199.5q0 67 18 119t50.5 87t77.5 53.5t98 18.5q60 0 103 -19t70.5 -52.5t41 -79.5t13.5 -101v-44h-384q0 -39 10.5 -72.5t30 -58t48.5 -38.5t67 -14q65 0 95 24.5t41 66.5h84zM435 302q0 37 -8 67t-25 51.5 t-44 33.5t-65 12q-69 0 -107.5 -42t-45.5 -122h295zM250 715h89v-101h-89v101z" glyph-name="edotaccent" horiz-adv-x="570" unicode="ė"/><glyph d="M79 714h462v-81h-370v-224h350v-82h-350v-246h389l-15 -81q-66 -47 -66 -88q0 -21 12.5 -28t30.5 -7h13t12 1v-62q-5 -1 -14.5 -1.5t-17.5 -0.5q-64 0 -90.5 21.5t-26.5 60.5q0 27 17 52.5t51 51.5h-387v714z" glyph-name="Eogonek" horiz-adv-x="594" unicode="Ę"/><glyph d="M400 -178q-7 -1 -15.5 -1.5t-16.5 -0.5q-63 0 -88 20.5t-25 58.5q0 44 47 85h-8q-118 0 -181 71.5t-63 199.5q0 67 18 119t50.5 87t77.5 53.5t98 18.5q60 0 103 -19t70.5 -52.5t41 -79.5t13.5 -101v-44h-384q0 -39 10.5 -72.5t30 -58t48.5 -38.5t67 -14q65 0 95 24.5 t41 66.5h84q-9 -53 -38 -90t-81 -56q-62 -46 -62 -85q0 -20 12.5 -27t29.5 -7h11.5t13.5 1v-59zM435 302q0 37 -8 67t-25 51.5t-44 33.5t-65 12q-69 0 -107.5 -42t-45.5 -122h295z" glyph-name="eogonek" horiz-adv-x="570" unicode="ę"/><glyph d="M79 714h462v-81h-370v-224h350v-82h-350v-246h389l-15 -81h-466v714zM154 911h83l77 -80l77 80h81l-115 -134h-87z" glyph-name="Ecaron" horiz-adv-x="594" unicode="Ě"/><glyph d="M514 145q-13 -75 -66.5 -118t-153.5 -43q-118 0 -181 71.5t-63 199.5q0 67 18 119t50.5 87t77.5 53.5t98 18.5q60 0 103 -19t70.5 -52.5t41 -79.5t13.5 -101v-44h-384q0 -39 10.5 -72.5t30 -58t48.5 -38.5t67 -14q65 0 95 24.5t41 66.5h84zM435 302q0 37 -8 67t-25 51.5 t-44 33.5t-65 12q-69 0 -107.5 -42t-45.5 -122h295zM338 593h-87l-115 142h81l78 -88l78 88h80z" glyph-name="ecaron" horiz-adv-x="570" unicode="ě"/><glyph d="M392 367h267v-286q-27 -25 -59.5 -43.5t-68 -31t-73 -18.5t-73.5 -6q-79 0 -140.5 25.5t-104 73.5t-64.5 117.5t-22 157.5q0 90 24 160t66.5 118t101.5 73t129 25q60 0 106 -14.5t78.5 -41.5t53.5 -64.5t32 -83.5l-89 -15q-8 31 -21.5 57t-34.5 44.5t-51.5 28.5t-73.5 10 q-56 0 -98 -21.5t-70 -60.5t-42.5 -93.5t-14.5 -120.5t14 -120.5t43.5 -93.5t73.5 -60t104 -21q54 0 101.5 13t85.5 41v171h-180v80zM333 908h87l115 -135h-82l-77 79l-77 -79h-82z" glyph-name="Gcircumflex" horiz-adv-x="716" unicode="Ĝ"/><glyph d="M155 -48q11 -47 42.5 -67t98.5 -20q82 0 113.5 45.5t31.5 132.5v55q-30 -42 -72.5 -65t-99.5 -23q-56 0 -97.5 20.5t-68.5 56t-40.5 82.5t-13.5 101q0 59 16 107.5t46 83t72.5 53.5t95.5 19q43 0 85.5 -17.5t77.5 -64.5v66h86v-433q0 -67 -9.5 -120.5t-35 -91 t-70.5 -57.5t-116 -20q-102 0 -160 36.5t-68 120.5h86zM443 278q0 51 -12 85.5t-33 56.5t-48.5 31.5t-57.5 9.5q-32 0 -59.5 -10.5t-48 -33.5t-32 -59t-11.5 -87q0 -52 12.5 -88t32.5 -58t46.5 -32t53.5 -10q34 0 62.5 11t49.5 33t33 55.5t12 78.5v17zM261 733h87l115 -142 h-81l-78 88l-78 -88h-80z" glyph-name="gcircumflex" horiz-adv-x="595" unicode="ĝ"/><glyph d="M392 367h267v-286q-27 -25 -59.5 -43.5t-68 -31t-73 -18.5t-73.5 -6q-79 0 -140.5 25.5t-104 73.5t-64.5 117.5t-22 157.5q0 90 24 160t66.5 118t101.5 73t129 25q60 0 106 -14.5t78.5 -41.5t53.5 -64.5t32 -83.5l-89 -15q-8 31 -21.5 57t-34.5 44.5t-51.5 28.5t-73.5 10 q-56 0 -98 -21.5t-70 -60.5t-42.5 -93.5t-14.5 -120.5t14 -120.5t43.5 -93.5t73.5 -60t104 -21q54 0 101.5 13t85.5 41v171h-180v80zM306 912q0 -42 20 -61t50 -19q29 0 50 19t21 61h68q0 -68 -37 -103.5t-102 -35.5t-101.5 35.5t-36.5 103.5h68z" glyph-name="Gbreve" horiz-adv-x="716" unicode="Ğ"/><glyph d="M155 -48q11 -47 42.5 -67t98.5 -20q82 0 113.5 45.5t31.5 132.5v55q-30 -42 -72.5 -65t-99.5 -23q-56 0 -97.5 20.5t-68.5 56t-40.5 82.5t-13.5 101q0 59 16 107.5t46 83t72.5 53.5t95.5 19q43 0 85.5 -17.5t77.5 -64.5v66h86v-433q0 -67 -9.5 -120.5t-35 -91 t-70.5 -57.5t-116 -20q-102 0 -160 36.5t-68 120.5h86zM443 278q0 51 -12 85.5t-33 56.5t-48.5 31.5t-57.5 9.5q-32 0 -59.5 -10.5t-48 -33.5t-32 -59t-11.5 -87q0 -52 12.5 -88t32.5 -58t46.5 -32t53.5 -10q34 0 62.5 11t49.5 33t33 55.5t12 78.5v17zM234 729 q0 -42 20.5 -61.5t49.5 -19.5t50 19.5t21 61.5h66q0 -67 -36.5 -103t-100.5 -36t-100 36t-36 103h66z" glyph-name="gbreve" horiz-adv-x="595" unicode="ğ"/><glyph d="M392 367h267v-286q-27 -25 -59.5 -43.5t-68 -31t-73 -18.5t-73.5 -6q-79 0 -140.5 25.5t-104 73.5t-64.5 117.5t-22 157.5q0 90 24 160t66.5 118t101.5 73t129 25q60 0 106 -14.5t78.5 -41.5t53.5 -64.5t32 -83.5l-89 -15q-8 31 -21.5 57t-34.5 44.5t-51.5 28.5t-73.5 10 q-56 0 -98 -21.5t-70 -60.5t-42.5 -93.5t-14.5 -120.5t14 -120.5t43.5 -93.5t73.5 -60t104 -21q54 0 101.5 13t85.5 41v171h-180v80zM330 894h93v-105h-93v105z" glyph-name="Gdotaccent" horiz-adv-x="716" unicode="Ġ"/><glyph d="M155 -48q11 -47 42.5 -67t98.5 -20q82 0 113.5 45.5t31.5 132.5v55q-30 -42 -72.5 -65t-99.5 -23q-56 0 -97.5 20.5t-68.5 56t-40.5 82.5t-13.5 101q0 59 16 107.5t46 83t72.5 53.5t95.5 19q43 0 85.5 -17.5t77.5 -64.5v66h86v-433q0 -67 -9.5 -120.5t-35 -91 t-70.5 -57.5t-116 -20q-102 0 -160 36.5t-68 120.5h86zM443 278q0 51 -12 85.5t-33 56.5t-48.5 31.5t-57.5 9.5q-32 0 -59.5 -10.5t-48 -33.5t-32 -59t-11.5 -87q0 -52 12.5 -88t32.5 -58t46.5 -32t53.5 -10q34 0 62.5 11t49.5 33t33 55.5t12 78.5v17zM255 715h89v-101h-89 v101z" glyph-name="gdotaccent" horiz-adv-x="595" unicode="ġ"/><glyph d="M392 367h267v-286q-27 -25 -59.5 -43.5t-68 -31t-73 -18.5t-73.5 -6q-79 0 -140.5 25.5t-104 73.5t-64.5 117.5t-22 157.5q0 90 24 160t66.5 118t101.5 73t129 25q60 0 106 -14.5t78.5 -41.5t53.5 -64.5t32 -83.5l-89 -15q-8 31 -21.5 57t-34.5 44.5t-51.5 28.5t-73.5 10 q-56 0 -98 -21.5t-70 -60.5t-42.5 -93.5t-14.5 -120.5t14 -120.5t43.5 -93.5t73.5 -60t104 -21q54 0 101.5 13t85.5 41v171h-180v80zM343 -67h99l-96 -150h-79z" glyph-name="Gcommaaccent" horiz-adv-x="716" unicode="Ģ"/><glyph d="M155 -48q11 -47 42.5 -67t98.5 -20q82 0 113.5 45.5t31.5 132.5v55q-30 -42 -72.5 -65t-99.5 -23q-56 0 -97.5 20.5t-68.5 56t-40.5 82.5t-13.5 101q0 59 16 107.5t46 83t72.5 53.5t95.5 19q43 0 85.5 -17.5t77.5 -64.5v66h86v-433q0 -67 -9.5 -120.5t-35 -91 t-70.5 -57.5t-116 -20q-102 0 -160 36.5t-68 120.5h86zM443 278q0 51 -12 85.5t-33 56.5t-48.5 31.5t-57.5 9.5q-32 0 -59.5 -10.5t-48 -33.5t-32 -59t-11.5 -87q0 -52 12.5 -88t32.5 -58t46.5 -32t53.5 -10q34 0 62.5 11t49.5 33t33 55.5t12 78.5v17zM335 733h76l-74 -145 h-95z" glyph-name="gcommaaccent" horiz-adv-x="595" unicode="ģ"/><glyph d="M79 714h92v-302h361v302h92v-714h-92v326h-361v-326h-92v714zM308 908h87l115 -135h-82l-77 79l-77 -79h-82z" glyph-name="Hcircumflex" horiz-adv-x="703" unicode="Ĥ"/><glyph d="M67 714h87v-274q38 49 83.5 71t96.5 22q88 0 130.5 -48t42.5 -141v-344h-88v327q0 72 -25.5 101.5t-79.5 29.5q-29 0 -57.5 -10t-51.5 -32q-25 -22 -38 -46.5t-13 -63.5v-306h-87v714zM186 908h87l115 -135h-82l-77 79l-77 -79h-82z" glyph-name="hcircumflex" horiz-adv-x="570" unicode="ĥ"/><glyph d="M92 521h-82v76h82v117h92v-117h361v117h92v-117h82v-76h-82v-521h-92v318h-361v-318h-92v521zM545 404v117h-361v-117h361z" glyph-name="Hbar" horiz-adv-x="729" unicode="Ħ"/><glyph d="M79 577h-69v63h69v74h87v-74h169v-63h-169v-160q38 49 83.5 71t95.5 22q91 0 132.5 -48.5t41.5 -141.5v-320h-88v303q0 72 -25.5 102t-79.5 30q-29 0 -57.5 -10.5t-52.5 -32.5q-25 -22 -37.5 -46.5t-12.5 -62.5v-283h-87v577z" glyph-name="hbar" horiz-adv-x="582" unicode="ħ"/><glyph d="M79 714h92v-714h-92v714zM-54 779q0 58 28 88t77 30q25 0 43.5 -8.5t34.5 -18t31 -18t33 -8.5q26 0 36 14t10 37h66q0 -59 -28 -88.5t-77 -29.5q-25 0 -43.5 8.5t-34.5 18t-31 18t-33 8.5q-26 0 -36 -14t-10 -37h-66z" glyph-name="Itilde" horiz-adv-x="250" unicode="Ĩ"/><glyph d="M69 517h87v-517h-87v517zM-62 605q0 58 27 87.5t75 29.5q24 0 42.5 -8t34.5 -18t31.5 -18t32.5 -8q24 0 34 13t10 36h64q0 -58 -27 -87.5t-75 -29.5q-24 0 -42.5 8.5t-34.5 18t-31 18t-32 8.5q-25 0 -35 -13.5t-10 -36.5h-64z" glyph-name="itilde" horiz-adv-x="225" unicode="ĩ"/><glyph d="M79 714h92v-714h-92v714zM-21 869h292v-74h-292v74z" glyph-name="Imacron" horiz-adv-x="250" unicode="Ī"/><glyph d="M69 517h87v-517h-87v517zM-17 693h261v-71h-261v71z" glyph-name="imacron" horiz-adv-x="225" unicode="ī"/><glyph d="M79 714h92v-714h-92v714zM55 912q0 -42 20 -61t50 -19q29 0 50 19t21 61h68q0 -68 -37 -103.5t-102 -35.5t-101.5 35.5t-36.5 103.5h68z" glyph-name="Ibreve" horiz-adv-x="250" unicode="Ĭ"/><glyph d="M69 517h87v-517h-87v517zM43 729q0 -42 20.5 -61.5t49.5 -19.5t50 19.5t21 61.5h66q0 -67 -36.5 -103t-100.5 -36t-100 36t-36 103h66z" glyph-name="ibreve" horiz-adv-x="225" unicode="ĭ"/><glyph d="M173 -184q-5 -1 -14.5 -1.5t-17.5 -0.5q-64 0 -90.5 21.5t-26.5 60.5q0 27 17 52.5t51 51.5h-13v714h92v-714q-66 -47 -66 -88q0 -21 12.5 -28t30.5 -7h13t12 1v-62z" glyph-name="Iogonek" horiz-adv-x="250" unicode="Į"/><glyph d="M160 -178q-7 -1 -15.5 -1.5t-16.5 -0.5q-63 0 -88 20.5t-25 58.5q0 52 67 101h-13v517h87v-517q-63 -47 -63 -86q0 -20 12.5 -27t29.5 -7h11.5t13.5 1v-59zM66 714h93v-101h-93v101z" glyph-name="iogonek" horiz-adv-x="225" unicode="į"/><glyph d="M79 714h92v-714h-92v714zM79 894h93v-105h-93v105z" glyph-name="Idotaccent" horiz-adv-x="250" unicode="İ"/><glyph d="M69 517h87v-517h-87v517z" glyph-name="dotlessi" horiz-adv-x="225" unicode="ı"/><glyph d="M79 714h92v-714h-92v714zM371 214q4 -33 14 -61t28.5 -48t47 -31.5t70.5 -11.5q84 0 118.5 47t34.5 133v472h92v-479q0 -127 -65 -190t-178 -63q-112 0 -178 56t-77 176h93z" glyph-name="IJ" horiz-adv-x="848" unicode="Ĳ"/><glyph d="M69 517h87v-517h-87v517zM66 714h93v-101h-93v101zM292 714h93v-101h-93v101zM160 -101q14 -5 30.5 -7.5t37.5 -2.5q37 0 52 20t15 62v546h87v-523q0 -39 -6 -72t-21.5 -57t-43 -37.5t-69.5 -13.5q-31 0 -54 4.5t-43 11.5z" glyph-name="ij" horiz-adv-x="451" unicode="ĳ"/><glyph d="M120 214q4 -33 14 -61t28.5 -48t47 -31.5t70.5 -11.5q84 0 118.5 47t34.5 133v472h92v-479q0 -127 -65 -190t-178 -63q-112 0 -178 56t-77 176h93zM434 908h87l115 -135h-82l-77 79l-77 -79h-82z" glyph-name="Jcircumflex" horiz-adv-x="597" unicode="Ĵ"/><glyph d="M-66 -101q14 -5 30.5 -7.5t37.5 -2.5q37 0 52 20t15 62v546h87v-523q0 -39 -6 -72t-21.5 -57t-43 -37.5t-69.5 -13.5q-31 0 -54 4.5t-43 11.5zM70 733h87l115 -142h-81l-78 88l-78 -88h-80z" glyph-name="jcircumflex" horiz-adv-x="225" unicode="ĵ"/><glyph d="M79 714h93v-342l335 342h105l-255 -267l281 -447h-106l-242 386l-118 -118v-268h-93v714zM301 -67h99l-96 -150h-79z" glyph-name="Kcommaaccent" horiz-adv-x="650" unicode="Ķ"/><glyph d="M67 714h86v-416l242 219h105l-185 -173l205 -344h-99l-171 293l-97 -87v-206h-86v714zM238 -67h95l-93 -146h-76z" glyph-name="kcommaaccent" horiz-adv-x="523" unicode="ķ"/><glyph d="M67 517h86v-245l244 245h102l-183 -189l204 -328h-99l-169 275l-99 -97v-178h-86v517z" glyph-name="kgreenlandic" horiz-adv-x="523" unicode="ĸ"/><glyph d="M79 714h92v-632h370l-14 -82h-448v714zM186 908h108l-138 -135h-87z" glyph-name="Lacute" horiz-adv-x="562" unicode="Ĺ"/><glyph d="M69 714h87v-714h-87v714zM175 908h108l-138 -135h-87z" glyph-name="lacute" horiz-adv-x="225" unicode="ĺ"/><glyph d="M79 714h92v-632h370l-14 -82h-448v714zM264 -67h99l-96 -150h-79z" glyph-name="Lcommaaccent" horiz-adv-x="562" unicode="Ļ"/><glyph d="M69 714h87v-714h-87v714zM67 -67h95l-93 -146h-76z" glyph-name="lcommaaccent" horiz-adv-x="225" unicode="ļ"/><glyph d="M79 714h92v-632h370l-14 -82h-448v714zM358.34 714.966h88.7656l-47.4795 -210.562h-69.1553z" glyph-name="Lcaron" horiz-adv-x="562" unicode="Ľ"/><glyph d="M69 714h87v-714h-87v714zM248 714h86l-46 -204h-67z" glyph-name="lcaron" horiz-adv-x="225" unicode="ľ"/><glyph d="M79 714h92v-632h370l-14 -82h-448v714zM345 456h100v-117h-100v117z" glyph-name="Ldot" horiz-adv-x="562" unicode="Ŀ"/><glyph d="M69 714h87v-714h-87v714zM234 432h100v-117h-100v117z" glyph-name="ldot" horiz-adv-x="344" unicode="ŀ"/><glyph d="M92 246l-82 -57v86l82 57v382h92v-317l199 139v-86l-199 -139v-229h370l-14 -82h-448v246z" glyph-name="Lslash" horiz-adv-x="575" unicode="Ł"/><glyph d="M96 324l-91 -64v76l91 64v314h87v-260l91 65v-77l-91 -64v-378h-87v324z" glyph-name="lslash" horiz-adv-x="279" unicode="ł"/><glyph d="M79 714h91l363 -567v567h89v-714h-88l-366 564v-564h-89v714zM395 908h108l-138 -135h-87z" glyph-name="Nacute" horiz-adv-x="701" unicode="Ń"/><glyph d="M67 517h86v-79q38 51 84 73t97 22q88 0 130.5 -48t42.5 -141v-344h-87v327q0 72 -26 101.5t-80 29.5q-29 0 -57.5 -10t-51.5 -32q-25 -22 -38 -46.5t-13 -63.5v-306h-87v517zM314 733h107l-135 -142h-86z" glyph-name="nacute" horiz-adv-x="570" unicode="ń"/><glyph d="M79 714h91l363 -567v567h89v-714h-88l-366 564v-564h-89v714zM311 -67h99l-96 -150h-79z" glyph-name="Ncommaaccent" horiz-adv-x="701" unicode="Ņ"/><glyph d="M67 517h86v-79q38 51 84 73t97 22q88 0 130.5 -48t42.5 -141v-344h-87v327q0 72 -26 101.5t-80 29.5q-29 0 -57.5 -10t-51.5 -32q-25 -22 -38 -46.5t-13 -63.5v-306h-87v517zM246 -67h95l-93 -146h-76z" glyph-name="ncommaaccent" horiz-adv-x="570" unicode="ņ"/><glyph d="M79 714h91l363 -567v567h89v-714h-88l-366 564v-564h-89v714zM193 911h83l77 -80l77 80h81l-115 -134h-87z" glyph-name="Ncaron" horiz-adv-x="701" unicode="Ň"/><glyph d="M67 517h86v-79q38 51 84 73t97 22q88 0 130.5 -48t42.5 -141v-344h-87v327q0 72 -26 101.5t-80 29.5q-29 0 -57.5 -10t-51.5 -32q-25 -22 -38 -46.5t-13 -63.5v-306h-87v517zM334 593h-87l-115 142h81l78 -88l78 88h80z" glyph-name="ncaron" horiz-adv-x="570" unicode="ň"/><glyph d="M129 517h86v-79q38 51 84 73t97 22q88 0 130.5 -48t42.5 -141v-344h-87v327q0 72 -26 101.5t-80 29.5q-29 0 -57.5 -10t-51.5 -32q-25 -22 -38 -46.5t-13 -63.5v-306h-87v517zM29 714h92l-53 -210h-67z" glyph-name="napostrophe" horiz-adv-x="632" unicode="ŉ"/><glyph d="M275 -103q22 -9 49 -15t67 -6q71 0 104.5 32t33.5 100l-361 556v-564h-89v714h91l363 -567v567h89v-702q0 -59 -16 -100t-46 -67t-72 -38t-94 -12q-40 0 -74.5 5t-67.5 19z" glyph-name="Eng" horiz-adv-x="701" unicode="Ŋ"/><glyph d="M67 517h86v-79q38 51 84 73t97 22q88 0 130.5 -48t42.5 -141v-351q0 -39 -6 -72t-22 -56.5t-43 -37t-69 -13.5q-32 0 -54 4.5t-42 11.5l14 69q14 -5 30 -7.5t38 -2.5q36 0 51.5 20t15.5 62v356q0 72 -26 101.5t-80 29.5q-29 0 -57.5 -10t-51.5 -32q-25 -22 -38 -46.5 t-13 -63.5v-306h-87v517z" glyph-name="eng" horiz-adv-x="570" unicode="ŋ"/><glyph d="M383 -18q-73 0 -133.5 24.5t-104 72t-67.5 117.5t-24 160t24.5 160t68 118t104 73t132.5 25q73 0 133.5 -24.5t103.5 -72t67 -117t24 -159.5t-23.5 -160.5t-66.5 -118.5t-103.5 -73t-134.5 -25zM383 62q57 0 100.5 21t72.5 59.5t44 93t15 121.5q0 66 -15 120.5 t-44.5 93.5t-72.5 60t-100 21q-58 0 -101.5 -21t-73 -60t-44 -93.5t-14.5 -120.5q0 -67 14.5 -121.5t43.5 -93t72.5 -59.5t102.5 -21zM236 869h292v-74h-292v74z" glyph-name="Omacron" horiz-adv-x="765" unicode="Ō"/><glyph d="M299 -16q-59 0 -105 19t-78 54t-49 86t-17 114t18 114t51 87t79.5 55.5t103.5 19.5q58 0 104 -19t78.5 -54.5t49.5 -85.5t17 -113q0 -64 -17.5 -115t-50 -87t-79.5 -55.5t-105 -19.5zM300 56q42 0 72 15t49.5 42t28.5 64.5t9 82.5q0 44 -9 81t-28.5 63.5t-49.5 41.5 t-72 15t-71.5 -15t-49 -41.5t-28.5 -63.5t-9 -82t9 -82t28 -64t49 -42t72 -15zM170 693h261v-71h-261v71z" glyph-name="omacron" horiz-adv-x="601" unicode="ō"/><glyph d="M383 -18q-73 0 -133.5 24.5t-104 72t-67.5 117.5t-24 160t24.5 160t68 118t104 73t132.5 25q73 0 133.5 -24.5t103.5 -72t67 -117t24 -159.5t-23.5 -160.5t-66.5 -118.5t-103.5 -73t-134.5 -25zM383 62q57 0 100.5 21t72.5 59.5t44 93t15 121.5q0 66 -15 120.5 t-44.5 93.5t-72.5 60t-100 21q-58 0 -101.5 -21t-73 -60t-44 -93.5t-14.5 -120.5q0 -67 14.5 -121.5t43.5 -93t72.5 -59.5t102.5 -21zM312 912q0 -42 20 -61t50 -19q29 0 50 19t21 61h68q0 -68 -37 -103.5t-102 -35.5t-101.5 35.5t-36.5 103.5h68z" glyph-name="Obreve" horiz-adv-x="765" unicode="Ŏ"/><glyph d="M299 -16q-59 0 -105 19t-78 54t-49 86t-17 114t18 114t51 87t79.5 55.5t103.5 19.5q58 0 104 -19t78.5 -54.5t49.5 -85.5t17 -113q0 -64 -17.5 -115t-50 -87t-79.5 -55.5t-105 -19.5zM300 56q42 0 72 15t49.5 42t28.5 64.5t9 82.5q0 44 -9 81t-28.5 63.5t-49.5 41.5 t-72 15t-71.5 -15t-49 -41.5t-28.5 -63.5t-9 -82t9 -82t28 -64t49 -42t72 -15zM230 729q0 -42 20.5 -61.5t49.5 -19.5t50 19.5t21 61.5h66q0 -67 -36.5 -103t-100.5 -36t-100 36t-36 103h66z" glyph-name="obreve" horiz-adv-x="601" unicode="ŏ"/><glyph d="M383 -18q-73 0 -133.5 24.5t-104 72t-67.5 117.5t-24 160t24.5 160t68 118t104 73t132.5 25q73 0 133.5 -24.5t103.5 -72t67 -117t24 -159.5t-23.5 -160.5t-66.5 -118.5t-103.5 -73t-134.5 -25zM383 62q57 0 100.5 21t72.5 59.5t44 93t15 121.5q0 66 -15 120.5 t-44.5 93.5t-72.5 60t-100 21q-58 0 -101.5 -21t-73 -60t-44 -93.5t-14.5 -120.5q0 -67 14.5 -121.5t43.5 -93t72.5 -59.5t102.5 -21zM354 908h102l-130 -135h-80zM534 908h102l-131 -135h-80z" glyph-name="Ohungarumlaut" horiz-adv-x="765" unicode="Ő"/><glyph d="M299 -16q-59 0 -105 19t-78 54t-49 86t-17 114t18 114t51 87t79.5 55.5t103.5 19.5q58 0 104 -19t78.5 -54.5t49.5 -85.5t17 -113q0 -64 -17.5 -115t-50 -87t-79.5 -55.5t-105 -19.5zM300 56q42 0 72 15t49.5 42t28.5 64.5t9 82.5q0 44 -9 81t-28.5 63.5t-49.5 41.5 t-72 15t-71.5 -15t-49 -41.5t-28.5 -63.5t-9 -82t9 -82t28 -64t49 -42t72 -15zM268 733h100l-124 -142h-79zM442 733h100l-125 -142h-78z" glyph-name="ohungarumlaut" horiz-adv-x="601" unicode="ő"/><glyph d="M588 106q-38 -60 -90.5 -92t-131.5 -32q-66 0 -123 24.5t-99 72t-66 117.5t-24 160t24 160t66 118t99 73t123 25q77 0 130 -30.5t92 -90.5v103h435v-81h-346v-224h326v-82h-326v-246h365l-15 -81h-439v106zM369 61q53 0 93.5 21t68 59t42 91.5t15.5 119.5q0 67 -14 122.5 t-42 95.5t-68.5 61.5t-94.5 21.5q-53 0 -93.5 -21.5t-68.5 -60.5t-42.5 -93.5t-14.5 -120.5q0 -67 14.5 -121.5t42 -93.5t68.5 -60t94 -21z" glyph-name="OE" horiz-adv-x="1076" unicode="Œ"/><glyph d="M912 145q-13 -75 -66 -118t-151 -43q-74 0 -122 32.5t-77 90.5q-31 -60 -79.5 -91.5t-120.5 -31.5q-58 0 -103.5 19t-77 54t-48.5 86t-17 114t18 114t50.5 87t78.5 55.5t102 19.5q70 0 119.5 -30.5t78.5 -89.5q31 60 81.5 90t116.5 30q58 0 100.5 -19t70.5 -52.5 t41 -79.5t13 -101v-44h-378q0 -39 10 -72.5t29.5 -58t48 -38.5t65.5 -14q63 0 92.5 24.5t40.5 66.5h84zM297 56q40 0 69.5 15t49 42t28.5 64t9 82q0 44 -9 81t-27.5 64t-48 42t-71.5 15q-41 0 -70 -15t-48 -41.5t-28 -63.5t-9 -82t9 -82t27.5 -64t48 -42t70.5 -15zM833 302 q0 37 -8 67t-25 51.5t-43 33.5t-63 12q-66 0 -104.5 -42t-45.5 -122h289z" glyph-name="oe" horiz-adv-x="968" unicode="œ"/><glyph d="M79 714h234q80 0 131 -18t80.5 -46.5t40.5 -64.5t11 -73q0 -68 -28.5 -116t-93.5 -75l150 -321h-103l-135 299q-13 -2 -28 -2.5t-27 -0.5h-141v-296h-91v714zM322 375q48 0 79 9.5t49 27t25 42.5t7 56q0 30 -8 53t-27.5 39.5t-52.5 25t-84 8.5h-140v-261h152zM341 908 h108l-138 -135h-87z" glyph-name="Racute" horiz-adv-x="632" unicode="Ŕ"/><glyph d="M67 517h86v-80q29 43 68 66t83 23q27 0 46 -4l-11 -81q-10 2 -20 3.5t-22 1.5q-24 0 -49 -8.5t-47 -28.5q-22 -19 -34.5 -44t-12.5 -58v-307h-87v517zM254 733h107l-135 -142h-86z" glyph-name="racute" horiz-adv-x="366" unicode="ŕ"/><glyph d="M79 714h234q80 0 131 -18t80.5 -46.5t40.5 -64.5t11 -73q0 -68 -28.5 -116t-93.5 -75l150 -321h-103l-135 299q-13 -2 -28 -2.5t-27 -0.5h-141v-296h-91v714zM322 375q48 0 79 9.5t49 27t25 42.5t7 56q0 30 -8 53t-27.5 39.5t-52.5 25t-84 8.5h-140v-261h152zM285 -67h99 l-96 -150h-79z" glyph-name="Rcommaaccent" horiz-adv-x="632" unicode="Ŗ"/><glyph d="M67 517h86v-80q29 43 68 66t83 23q27 0 46 -4l-11 -81q-10 2 -20 3.5t-22 1.5q-24 0 -49 -8.5t-47 -28.5q-22 -19 -34.5 -44t-12.5 -58v-307h-87v517zM70 -67h95l-93 -146h-76z" glyph-name="rcommaaccent" horiz-adv-x="366" unicode="ŗ"/><glyph d="M79 714h234q80 0 131 -18t80.5 -46.5t40.5 -64.5t11 -73q0 -68 -28.5 -116t-93.5 -75l150 -321h-103l-135 299q-13 -2 -28 -2.5t-27 -0.5h-141v-296h-91v714zM322 375q48 0 79 9.5t49 27t25 42.5t7 56q0 30 -8 53t-27.5 39.5t-52.5 25t-84 8.5h-140v-261h152zM131 911h83 l77 -80l77 80h81l-115 -134h-87z" glyph-name="Rcaron" horiz-adv-x="632" unicode="Ř"/><glyph d="M67 517h86v-80q29 43 68 66t83 23q27 0 46 -4l-11 -81q-10 2 -20 3.5t-22 1.5q-24 0 -49 -8.5t-47 -28.5q-22 -19 -34.5 -44t-12.5 -58v-307h-87v517zM252 593h-87l-115 142h81l78 -88l78 88h80z" glyph-name="rcaron" horiz-adv-x="366" unicode="ř"/><glyph d="M131 203q12 -75 59.5 -108.5t141.5 -33.5q47 0 78.5 10.5t50.5 28t27 41t8 49.5q0 21 -5 40.5t-19.5 35.5t-40 28t-65.5 19l-90 16q-53 9 -94 24t-69.5 38.5t-43 58.5t-14.5 85q0 49 20.5 86t55.5 62t83 37t104 12q71 0 118.5 -15.5t77.5 -41.5t45.5 -59.5t23.5 -68.5 l-86 -17q-8 30 -20.5 53.5t-33 39t-50.5 23.5t-73 8q-49 0 -82 -9t-53 -24.5t-28.5 -37t-8.5 -45.5q0 -26 6.5 -45.5t22 -34t40.5 -24t62 -16.5l100 -18q111 -21 163 -69.5t52 -142.5q0 -43 -16.5 -80.5t-49 -65.5t-81.5 -44t-115 -16q-63 0 -114.5 12.5t-89.5 39.5t-61 69 t-28 100h92zM360 908h108l-138 -135h-87z" glyph-name="Sacute" horiz-adv-x="643" unicode="Ś"/><glyph d="M123 151q9 -54 45.5 -75.5t99.5 -21.5q66 0 93.5 22.5t27.5 59.5q0 15 -3.5 28.5t-13.5 24t-28 18.5t-47 13l-66 10q-44 7 -77 18t-56 28.5t-34.5 43t-11.5 61.5t15.5 64t43 47.5t65 30t81.5 10.5q56 0 93.5 -11t61.5 -30t37 -45t20 -55l-79 -13q-7 21 -16 37t-24 26.5 t-36.5 16t-53.5 5.5q-36 0 -60 -6.5t-38.5 -17.5t-20.5 -24.5t-6 -28.5q0 -16 4 -28.5t15 -22t30 -16.5t49 -12l75 -12q91 -15 130.5 -52t39.5 -108q0 -33 -13 -60.5t-39 -48t-65 -32t-91 -11.5q-47 0 -87.5 9t-71.5 28.5t-50 51.5t-22 78h84zM307 733h107l-135 -142h-86z " glyph-name="sacute" horiz-adv-x="522" unicode="ś"/><glyph d="M131 203q12 -75 59.5 -108.5t141.5 -33.5q47 0 78.5 10.5t50.5 28t27 41t8 49.5q0 21 -5 40.5t-19.5 35.5t-40 28t-65.5 19l-90 16q-53 9 -94 24t-69.5 38.5t-43 58.5t-14.5 85q0 49 20.5 86t55.5 62t83 37t104 12q71 0 118.5 -15.5t77.5 -41.5t45.5 -59.5t23.5 -68.5 l-86 -17q-8 30 -20.5 53.5t-33 39t-50.5 23.5t-73 8q-49 0 -82 -9t-53 -24.5t-28.5 -37t-8.5 -45.5q0 -26 6.5 -45.5t22 -34t40.5 -24t62 -16.5l100 -18q111 -21 163 -69.5t52 -142.5q0 -43 -16.5 -80.5t-49 -65.5t-81.5 -44t-115 -16q-63 0 -114.5 12.5t-89.5 39.5t-61 69 t-28 100h92zM278 908h87l115 -135h-82l-77 79l-77 -79h-82z" glyph-name="Scircumflex" horiz-adv-x="643" unicode="Ŝ"/><glyph d="M123 151q9 -54 45.5 -75.5t99.5 -21.5q66 0 93.5 22.5t27.5 59.5q0 15 -3.5 28.5t-13.5 24t-28 18.5t-47 13l-66 10q-44 7 -77 18t-56 28.5t-34.5 43t-11.5 61.5t15.5 64t43 47.5t65 30t81.5 10.5q56 0 93.5 -11t61.5 -30t37 -45t20 -55l-79 -13q-7 21 -16 37t-24 26.5 t-36.5 16t-53.5 5.5q-36 0 -60 -6.5t-38.5 -17.5t-20.5 -24.5t-6 -28.5q0 -16 4 -28.5t15 -22t30 -16.5t49 -12l75 -12q91 -15 130.5 -52t39.5 -108q0 -33 -13 -60.5t-39 -48t-65 -32t-91 -11.5q-47 0 -87.5 9t-71.5 28.5t-50 51.5t-22 78h84zM218 733h87l115 -142h-81 l-78 88l-78 -88h-80z" glyph-name="scircumflex" horiz-adv-x="522" unicode="ŝ"/><glyph d="M219 -159q20 -3 34.5 -4t28.5 -1q31 0 44 9t13 26t-14.5 25t-56.5 8h-21l29 81q-103 10 -165.5 62.5t-71.5 155.5h92q12 -75 59.5 -108.5t141.5 -33.5q47 0 78.5 10.5t50.5 28t27 41t8 49.5q0 21 -5 40.5t-19.5 35.5t-40 28t-65.5 19l-90 16q-53 9 -94 24t-69.5 38.5 t-43 58.5t-14.5 85q0 49 20.5 86t55.5 62t83 37t104 12q71 0 118.5 -15.5t77.5 -41.5t45.5 -59.5t23.5 -68.5l-86 -17q-8 30 -20.5 53.5t-33 39t-50.5 23.5t-73 8q-49 0 -82 -9t-53 -24.5t-28.5 -37t-8.5 -45.5q0 -26 6.5 -45.5t22 -33.5t40.5 -24t62 -17l100 -18 q111 -21 163 -69.5t52 -142.5q0 -43 -16.5 -80.5t-49 -65t-81 -44t-113.5 -16.5l-14 -36q28 -3 46 -11t29 -19t15.5 -24t4.5 -28q0 -47 -35.5 -65.5t-96.5 -18.5q-15 0 -30 1t-34 4v56z" glyph-name="Scedilla" horiz-adv-x="643" unicode="Ş"/><glyph d="M166 -148q19 -2 32.5 -3t27.5 -1q30 0 43 8t13 23q0 17 -14.5 24.5t-54.5 7.5h-21l27 76q-38 4 -69.5 15.5t-55.5 31t-38 48.5t-17 69h84q9 -54 45.5 -75.5t99.5 -21.5q66 0 93.5 22.5t27.5 59.5q0 15 -3.5 28.5t-13.5 24t-28 18.5t-47 13l-66 10q-44 7 -77 18t-56 28.5 t-34.5 43t-11.5 61.5t15.5 64t43 47.5t65 30t81.5 10.5q56 0 93.5 -11t61.5 -30t37 -45t20 -55l-79 -13q-7 21 -16 37t-24 26.5t-36.5 16t-53.5 5.5q-36 0 -60 -6.5t-38.5 -17.5t-20.5 -24.5t-6 -28.5q0 -16 4 -28.5t15 -22t30 -16.5t49 -12l75 -12q91 -15 130.5 -52 t39.5 -108q0 -65 -50.5 -107.5t-152.5 -44.5l-11 -32q27 -3 44 -10.5t27.5 -18t14.5 -23.5t4 -27q0 -45 -34 -63t-93 -18q-14 0 -29 1t-32 4v55z" glyph-name="scedilla" horiz-adv-x="522" unicode="ş"/><glyph d="M131 203q12 -75 59.5 -108.5t141.5 -33.5q47 0 78.5 10.5t50.5 28t27 41t8 49.5q0 21 -5 40.5t-19.5 35.5t-40 28t-65.5 19l-90 16q-53 9 -94 24t-69.5 38.5t-43 58.5t-14.5 85q0 49 20.5 86t55.5 62t83 37t104 12q71 0 118.5 -15.5t77.5 -41.5t45.5 -59.5t23.5 -68.5 l-86 -17q-8 30 -20.5 53.5t-33 39t-50.5 23.5t-73 8q-49 0 -82 -9t-53 -24.5t-28.5 -37t-8.5 -45.5q0 -26 6.5 -45.5t22 -34t40.5 -24t62 -16.5l100 -18q111 -21 163 -69.5t52 -142.5q0 -43 -16.5 -80.5t-49 -65.5t-81.5 -44t-115 -16q-63 0 -114.5 12.5t-89.5 39.5t-61 69 t-28 100h92zM163 911h83l77 -80l77 80h81l-115 -134h-87z" glyph-name="Scaron" horiz-adv-x="643" unicode="Š"/><glyph d="M123 151q9 -54 45.5 -75.5t99.5 -21.5q66 0 93.5 22.5t27.5 59.5q0 15 -3.5 28.5t-13.5 24t-28 18.5t-47 13l-66 10q-44 7 -77 18t-56 28.5t-34.5 43t-11.5 61.5t15.5 64t43 47.5t65 30t81.5 10.5q56 0 93.5 -11t61.5 -30t37 -45t20 -55l-79 -13q-7 21 -16 37t-24 26.5 t-36.5 16t-53.5 5.5q-36 0 -60 -6.5t-38.5 -17.5t-20.5 -24.5t-6 -28.5q0 -16 4 -28.5t15 -22t30 -16.5t49 -12l75 -12q91 -15 130.5 -52t39.5 -108q0 -33 -13 -60.5t-39 -48t-65 -32t-91 -11.5q-47 0 -87.5 9t-71.5 28.5t-50 51.5t-22 78h84zM306 593h-87l-115 142h81 l78 -88l78 88h80z" glyph-name="scaron" horiz-adv-x="522" unicode="š"/><glyph d="M254 632h-236v82h565v-82h-236v-632h-22l-17 -48q27 -3 44 -10.5t27.5 -18t14.5 -23.5t4 -27q0 -45 -34 -63t-93 -18q-14 0 -29 1t-32 4v55q19 -2 32.5 -3t27.5 -1q30 0 43 8t13 23q0 17 -14.5 24.5t-54.5 7.5h-21l32 89h-14v632z" glyph-name="uni0162" horiz-adv-x="601" unicode="Ţ"/><glyph d="M127 -148q19 -2 32.5 -3t27.5 -1q30 0 43 8t13 23q0 17 -14.5 24.5t-54.5 7.5h-21l30 85q-26 8 -42.5 23.5t-26.5 38t-13.5 50.5t-3.5 60v280h-80v69h80v141h87v-141h137v-69h-137v-303q0 -38 17 -61t52 -23q22 0 38.5 3t30.5 8l15 -67q-20 -7 -43.5 -11.5t-55.5 -4.5 l-13 -37q27 -3 44 -10.5t27.5 -18t14.5 -23.5t4 -27q0 -45 -34 -63t-93 -18q-14 0 -29 1t-32 4v55z" glyph-name="uni0163" horiz-adv-x="347" unicode="ţ"/><glyph d="M254 632h-236v82h565v-82h-236v-632h-93v632zM141 911h83l77 -80l77 80h81l-115 -134h-87z" glyph-name="Tcaron" horiz-adv-x="601" unicode="Ť"/><glyph d="M269 733h81l-43 -159h-64zM97 448h-80v69h80v141h87v-141h137v-69h-137v-303q0 -38 17 -61t52 -23q22 0 38.5 3t30.5 8l15 -67q-20 -7 -43.5 -11.5t-55.5 -4.5q-44 0 -71 13t-43 37t-21.5 57t-5.5 72v280z" glyph-name="tcaron" horiz-adv-x="347" unicode="ť"/><glyph d="M254 310h-152v78h152v244h-236v82h565v-82h-236v-244h151v-78h-151v-310h-93v310z" glyph-name="Tbar" horiz-adv-x="601" unicode="Ŧ"/><glyph d="M17 308h80v140h-80v69h80v141h87v-141h137v-69h-137v-140h137v-69h-137v-94q0 -38 17 -61t52 -23q22 0 38.5 3t30.5 8l15 -67q-20 -7 -43.5 -11.5t-55.5 -4.5q-44 0 -71 13t-43 37t-21.5 57t-5.5 72v71h-80v69z" glyph-name="tbar" horiz-adv-x="347" unicode="ŧ"/><glyph d="M71 714h92v-431q0 -111 41.5 -166t137.5 -55q97 0 137 55.5t40 165.5v431h92v-431q0 -80 -18.5 -136.5t-53 -93.5t-85 -54t-113.5 -17q-129 0 -199.5 72t-70.5 233v427zM165 779q0 58 28 88t77 30q25 0 43.5 -8.5t34.5 -18t31 -18t33 -8.5q26 0 36 14t10 37h66 q0 -59 -28 -88.5t-77 -29.5q-25 0 -43.5 8.5t-34.5 18t-31 18t-33 8.5q-26 0 -36 -14t-10 -37h-66z" glyph-name="Utilde" horiz-adv-x="682" unicode="Ũ"/><glyph d="M64 517h87v-326q0 -72 23.5 -102t76.5 -30q58 0 105 42q25 22 38 46.5t13 63.5v306h87v-517h-86v80q-38 -50 -82 -73t-95 -23q-88 0 -127.5 47.5t-39.5 142.5v343zM107 605q0 58 27 87.5t75 29.5q24 0 42.5 -8t34.5 -18t31.5 -18t32.5 -8q24 0 34 13t10 36h64 q0 -58 -27 -87.5t-75 -29.5q-24 0 -42.5 8.5t-34.5 18t-31 18t-32 8.5q-25 0 -35 -13.5t-10 -36.5h-64z" glyph-name="utilde" horiz-adv-x="561" unicode="ũ"/><glyph d="M71 714h92v-431q0 -111 41.5 -166t137.5 -55q97 0 137 55.5t40 165.5v431h92v-431q0 -80 -18.5 -136.5t-53 -93.5t-85 -54t-113.5 -17q-129 0 -199.5 72t-70.5 233v427zM194 869h292v-74h-292v74z" glyph-name="Umacron" horiz-adv-x="682" unicode="Ū"/><glyph d="M64 517h87v-326q0 -72 23.5 -102t76.5 -30q58 0 105 42q25 22 38 46.5t13 63.5v306h87v-517h-86v80q-38 -50 -82 -73t-95 -23q-88 0 -127.5 47.5t-39.5 142.5v343zM150 693h261v-71h-261v71z" glyph-name="umacron" horiz-adv-x="561" unicode="ū"/><glyph d="M71 714h92v-431q0 -111 41.5 -166t137.5 -55q97 0 137 55.5t40 165.5v431h92v-431q0 -80 -18.5 -136.5t-53 -93.5t-85 -54t-113.5 -17q-129 0 -199.5 72t-70.5 233v427zM270 912q0 -42 20 -61t50 -19q29 0 50 19t21 61h68q0 -68 -37 -103.5t-102 -35.5t-101.5 35.5 t-36.5 103.5h68z" glyph-name="Ubreve" horiz-adv-x="682" unicode="Ŭ"/><glyph d="M64 517h87v-326q0 -72 23.5 -102t76.5 -30q58 0 105 42q25 22 38 46.5t13 63.5v306h87v-517h-86v80q-38 -50 -82 -73t-95 -23q-88 0 -127.5 47.5t-39.5 142.5v343zM210 729q0 -42 20.5 -61.5t49.5 -19.5t50 19.5t21 61.5h66q0 -67 -36.5 -103t-100.5 -36t-100 36t-36 103 h66z" glyph-name="ubreve" horiz-adv-x="561" unicode="ŭ"/><glyph d="M71 714h92v-431q0 -111 41.5 -166t137.5 -55q97 0 137 55.5t40 165.5v431h92v-431q0 -80 -18.5 -136.5t-53 -93.5t-85 -54t-113.5 -17q-129 0 -199.5 72t-70.5 233v427zM236 839q0 52 31 78t73 26q21 0 40 -6.5t33.5 -19.5t23 -32.5t8.5 -45.5t-8.5 -45t-23 -32 t-33.5 -19.5t-40 -6.5q-42 0 -73 26t-31 77zM340 788q49 0 49 51q0 29 -13 41.5t-36 12.5t-36 -12.5t-13 -41.5q0 -26 13 -38.5t36 -12.5z" glyph-name="Uring" horiz-adv-x="682" unicode="Ů"/><glyph d="M64 517h87v-326q0 -72 23.5 -102t76.5 -30q58 0 105 42q25 22 38 46.5t13 63.5v306h87v-517h-86v80q-38 -50 -82 -73t-95 -23q-88 0 -127.5 47.5t-39.5 142.5v343zM179 689q0 50 30 76t71 26q20 0 38.5 -6.5t33 -19.5t23 -32t8.5 -44t-8.5 -44t-23 -31.5t-33 -18.5 t-38.5 -6q-41 0 -71 25t-30 75zM280 638q23 0 35.5 12.5t12.5 38.5q0 27 -12.5 39.5t-35.5 12.5q-22 0 -34.5 -12.5t-12.5 -39.5q0 -26 12.5 -38.5t34.5 -12.5z" glyph-name="uring" horiz-adv-x="561" unicode="ů"/><glyph d="M71 714h92v-431q0 -111 41.5 -166t137.5 -55q97 0 137 55.5t40 165.5v431h92v-431q0 -80 -18.5 -136.5t-53 -93.5t-85 -54t-113.5 -17q-129 0 -199.5 72t-70.5 233v427zM293 908h102l-130 -135h-80zM473 908h102l-131 -135h-80z" glyph-name="Uhungarumlaut" horiz-adv-x="682" unicode="Ű"/><glyph d="M64 517h87v-326q0 -72 23.5 -102t76.5 -30q58 0 105 42q25 22 38 46.5t13 63.5v306h87v-517h-86v80q-38 -50 -82 -73t-95 -23q-88 0 -127.5 47.5t-39.5 142.5v343zM240 733h100l-124 -142h-79zM414 733h100l-125 -142h-78z" glyph-name="uhungarumlaut" horiz-adv-x="561" unicode="ű"/><glyph d="M458 -184q-5 -1 -14.5 -1.5t-17.5 -0.5q-64 0 -90.5 21.5t-26.5 60.5q0 44 46 86h-14q-129 0 -199.5 72t-70.5 233v427h92v-431q0 -111 41.5 -166t137.5 -55q97 0 137 55.5t40 165.5v431h92v-431q0 -120 -41 -189t-116 -95q-33 -23 -48.5 -45t-15.5 -42q0 -21 12.5 -28 t30.5 -7h13t12 1v-62z" glyph-name="Uogonek" horiz-adv-x="682" unicode="Ų"/><glyph d="M64 517h87v-326q0 -72 23.5 -102t76.5 -30q58 0 105 42q25 22 38 46.5t13 63.5v306h87v-517q-63 -47 -63 -86q0 -20 12.5 -27t29.5 -7h11.5t13.5 1v-59q-7 -1 -15.5 -1.5t-16.5 -0.5q-63 0 -88 20.5t-25 58.5q0 52 67 101h-12v80q-38 -50 -82 -73t-95 -23 q-88 0 -127.5 47.5t-39.5 142.5v343z" glyph-name="uogonek" horiz-adv-x="561" unicode="ų"/><glyph d="M12 714h104l149 -587l155 584h99l154 -584l148 587h98l-198 -714h-97l-159 597l-156 -597h-94zM423 908h87l115 -135h-82l-77 79l-77 -79h-82z" glyph-name="Wcircumflex" horiz-adv-x="931" unicode="Ŵ"/><glyph d="M8 517h95l104 -412l119 409h88l116 -409l103 412h92l-151 -517h-92l-116 412l-117 -412h-91zM323 733h87l115 -142h-81l-78 88l-78 -88h-80z" glyph-name="wcircumflex" horiz-adv-x="733" unicode="ŵ"/><glyph d="M262 303l-249 411h106l189 -330l194 330h97l-244 -411v-303h-93v303zM263 908h87l115 -135h-82l-77 79l-77 -79h-82z" glyph-name="Ycircumflex" horiz-adv-x="613" unicode="Ŷ"/><glyph d="M65 -110q28 -10 56 -10q32 0 49.5 16.5t34.5 61.5l21 55l-219 504h101l163 -406l149 406h96l-226 -566q-14 -35 -28 -61.5t-31 -45.5t-40.5 -28.5t-57.5 -9.5q-24 0 -43 3t-42 11zM218 733h87l115 -142h-81l-78 88l-78 -88h-80z" glyph-name="ycircumflex" horiz-adv-x="523" unicode="ŷ"/><glyph d="M262 303l-249 411h106l189 -330l194 330h97l-244 -411v-303h-93v303zM164 892h91v-102h-91v102zM343 892h92v-102h-92v102z" glyph-name="Ydieresis" horiz-adv-x="613" unicode="Ÿ"/><glyph d="M31 71l410 562h-403v81h512v-72l-409 -560h421l-14 -82h-517v71zM331 908h108l-138 -135h-87z" glyph-name="Zacute" horiz-adv-x="586" unicode="Ź"/><glyph d="M28 65l301 382h-295v70h403v-65l-301 -382h316l-11 -70h-413v65zM287 733h107l-135 -142h-86z" glyph-name="zacute" horiz-adv-x="467" unicode="ź"/><glyph d="M31 71l410 562h-403v81h512v-72l-409 -560h421l-14 -82h-517v71zM249 894h93v-105h-93v105z" glyph-name="Zdotaccent" horiz-adv-x="586" unicode="Ż"/><glyph d="M28 65l301 382h-295v70h403v-65l-301 -382h316l-11 -70h-413v65zM194 715h89v-101h-89v101z" glyph-name="zdotaccent" horiz-adv-x="467" unicode="ż"/><glyph d="M31 71l410 562h-403v81h512v-72l-409 -560h421l-14 -82h-517v71zM135 911h83l77 -80l77 80h81l-115 -134h-87z" glyph-name="Zcaron" horiz-adv-x="586" unicode="Ž"/><glyph d="M28 65l301 382h-295v70h403v-65l-301 -382h316l-11 -70h-413v65zM281 593h-87l-115 142h81l78 -88l78 88h80z" glyph-name="zcaron" horiz-adv-x="467" unicode="ž"/><glyph d="M70 562q0 42 12.5 72t34 49.5t50 29t60.5 9.5q22 0 43.5 -2.5t44.5 -9.5l-14 -68q-15 5 -30.5 6.5t-29.5 1.5q-35 0 -59.5 -18.5t-24.5 -67.5v-564h-87v562z" glyph-name="longs" horiz-adv-x="227" unicode="ſ"/><glyph d="M2 -89q15 -6 30.5 -9.5t32.5 -3.5q41 0 60 18.5t30 69.5l87 444h-81l12 73h83l10 53q15 77 56 115.5t122 38.5q27 0 49.5 -5.5t42.5 -13.5l-23 -68q-15 7 -30.5 10.5t-35.5 3.5q-42 0 -64 -18.5t-32 -69.5l-9 -46h132l-12 -73h-134l-88 -451q-15 -77 -53.5 -115.5 t-117.5 -38.5q-26 0 -48.5 5t-41.5 13z" glyph-name="florin" unicode="ƒ"/><glyph d="M131 203q12 -75 59.5 -108.5t141.5 -33.5q47 0 78.5 10.5t50.5 28t27 41t8 49.5q0 21 -5 40.5t-19.5 35.5t-40 28t-65.5 19l-90 16q-53 9 -94 24t-69.5 38.5t-43 58.5t-14.5 85q0 49 20.5 86t55.5 62t83 37t104 12q71 0 118.5 -15.5t77.5 -41.5t45.5 -59.5t23.5 -68.5 l-86 -17q-8 30 -20.5 53.5t-33 39t-50.5 23.5t-73 8q-49 0 -82 -9t-53 -24.5t-28.5 -37t-8.5 -45.5q0 -26 6.5 -45.5t22 -34t40.5 -24t62 -16.5l100 -18q111 -21 163 -69.5t52 -142.5q0 -43 -16.5 -80.5t-49 -65.5t-81.5 -44t-115 -16q-63 0 -114.5 12.5t-89.5 39.5t-61 69 t-28 100h92zM286 -67h99l-96 -150h-79z" glyph-name="Scommaaccent" horiz-adv-x="643" unicode="Ș"/><glyph d="M123 151q9 -54 45.5 -75.5t99.5 -21.5q66 0 93.5 22.5t27.5 59.5q0 15 -3.5 28.5t-13.5 24t-28 18.5t-47 13l-66 10q-44 7 -77 18t-56 28.5t-34.5 43t-11.5 61.5t15.5 64t43 47.5t65 30t81.5 10.5q56 0 93.5 -11t61.5 -30t37 -45t20 -55l-79 -13q-7 21 -16 37t-24 26.5 t-36.5 16t-53.5 5.5q-36 0 -60 -6.5t-38.5 -17.5t-20.5 -24.5t-6 -28.5q0 -16 4 -28.5t15 -22t30 -16.5t49 -12l75 -12q91 -15 130.5 -52t39.5 -108q0 -33 -13 -60.5t-39 -48t-65 -32t-91 -11.5q-47 0 -87.5 9t-71.5 28.5t-50 51.5t-22 78h84zM228 -67h95l-93 -146h-76z" glyph-name="scommaaccent" horiz-adv-x="522" unicode="ș"/><glyph d="M254 632h-236v82h565v-82h-236v-632h-93v632zM254 -67h99l-96 -150h-79z" glyph-name="uni021A" horiz-adv-x="601" unicode="Ț"/><glyph d="M97 448h-80v69h80v141h87v-141h137v-69h-137v-303q0 -38 17 -61t52 -23q22 0 38.5 3t30.5 8l15 -67q-20 -7 -43.5 -11.5t-55.5 -4.5q-44 0 -71 13t-43 37t-21.5 57t-5.5 72v280zM174 -67h95l-93 -146h-76z" glyph-name="uni021B" horiz-adv-x="347" unicode="ț"/><glyph d="M-66 -101q14 -5 30.5 -7.5t37.5 -2.5q37 0 52 20t15 62v546h87v-523q0 -39 -6 -72t-21.5 -57t-43 -37.5t-69.5 -13.5q-31 0 -54 4.5t-43 11.5z" glyph-name="dotlessj" horiz-adv-x="225" unicode="ȷ"/><glyph d="M66 714h92l-53 -210h-67z" glyph-name="apostrophe" horiz-adv-x="265" unicode="ʼ"/><glyph d="M152 733h87l115 -142h-81l-78 88l-78 -88h-80z" glyph-name="circumflex" horiz-adv-x="391" unicode="ˆ"/><glyph d="M239 593h-87l-115 142h81l78 -88l78 88h80z" glyph-name="caron" horiz-adv-x="391" unicode="ˇ"/><glyph d="M65 693h261v-71h-261v71z" glyph-name="uni02C9" horiz-adv-x="391" unicode="ˉ"/><glyph d="M125 729q0 -42 20.5 -61.5t49.5 -19.5t50 19.5t21 61.5h66q0 -67 -36.5 -103t-100.5 -36t-100 36t-36 103h66z" glyph-name="breve" horiz-adv-x="391" unicode="˘"/><glyph d="M151 715h89v-101h-89v101z" glyph-name="dotaccent" horiz-adv-x="391" unicode="˙"/><glyph d="M94 689q0 50 30 76t71 26q20 0 38.5 -6.5t33 -19.5t23 -32t8.5 -44t-8.5 -44t-23 -31.5t-33 -18.5t-38.5 -6q-41 0 -71 25t-30 75zM195 638q23 0 35.5 12.5t12.5 38.5q0 27 -12.5 39.5t-35.5 12.5q-22 0 -34.5 -12.5t-12.5 -39.5q0 -26 12.5 -38.5t34.5 -12.5z" glyph-name="ring" horiz-adv-x="391" unicode="˚"/><glyph d="M267 -178q-7 -1 -15.5 -1.5t-16.5 -0.5q-63 0 -88 20.5t-25 58.5q0 52 67 101h74q-63 -47 -63 -86q0 -20 12.5 -27t29.5 -7h11.5t13.5 1v-59z" glyph-name="ogonek" horiz-adv-x="391" unicode="˛"/><glyph d="M20 605q0 58 27 87.5t75 29.5q24 0 42.5 -8t34.5 -18t31.5 -18t32.5 -8q24 0 34 13t10 36h64q0 -58 -27 -87.5t-75 -29.5q-24 0 -42.5 8.5t-34.5 18t-31 18t-32 8.5q-25 0 -35 -13.5t-10 -36.5h-64z" glyph-name="tilde" horiz-adv-x="391" unicode="˜"/><glyph d="M110 733h100l-124 -142h-79zM284 733h100l-125 -142h-78z" glyph-name="hungarumlaut" horiz-adv-x="391" unicode="˝"/><glyph d="M271 745l-91 -154h-72l69 154h94z" glyph-name="tonos" horiz-adv-x="391" unicode="΄"/><glyph d="M20 710h84v-91h-84v91zM287 710h85v-91h-85v91zM268 745l-72 -154h-65l50 154h87z" glyph-name="dieresistonos" horiz-adv-x="391" unicode="΅"/><glyph d="M293 714h97l277 -714h-100l-75 199h-306l-75 -199h-96zM464 279l-126 331l-124 -331h250zM188 714l-81 -154h-72l59 154h94z" glyph-name="Alphatonos" horiz-adv-x="678" unicode="Ά"/><glyph d="M222 714h462v-81h-370v-224h350v-82h-350v-246h389l-15 -81h-466v714zM148 714l-81 -154h-72l59 154h94z" glyph-name="Epsilontonos" horiz-adv-x="736" unicode="Έ"/><glyph d="M222 714h92v-302h361v302h92v-714h-92v326h-361v-326h-92v714zM148 714l-81 -154h-72l59 154h94z" glyph-name="Etatonos" horiz-adv-x="845" unicode="Ή"/><glyph d="M222 714h92v-714h-92v714zM148 714l-81 -154h-72l59 154h94z" glyph-name="Iotatonos" horiz-adv-x="393" unicode="Ί"/><glyph d="M466 -18q-73 0 -133.5 24.5t-104 72t-67.5 117.5t-24 160t24.5 160t68 118t104 73t132.5 25q73 0 133.5 -24.5t103.5 -72t67 -117t24 -159.5t-23.5 -160.5t-66.5 -118.5t-103.5 -73t-134.5 -25zM466 62q57 0 100.5 21t72.5 59.5t44 93t15 121.5q0 66 -15 120.5 t-44.5 93.5t-72.5 60t-100 21q-58 0 -101.5 -21t-73 -60t-44 -93.5t-14.5 -120.5q0 -67 14.5 -121.5t43.5 -93t72.5 -59.5t102.5 -21zM155 714l-81 -154h-72l59 154h94z" glyph-name="Omicrontonos" horiz-adv-x="848" unicode="Ό"/><glyph d="M442 303l-249 411h106l189 -330l194 330h97l-244 -411v-303h-93v303zM148 714l-81 -154h-72l59 154h94z" glyph-name="Upsilontonos" horiz-adv-x="793" unicode="Ύ"/><glyph d="M259 78q-54 51 -88.5 125t-34.5 171q0 88 22.5 155t63.5 112t97.5 68t124.5 23t124 -22.5t96 -66.5t62 -110.5t22 -153.5q0 -97 -34.5 -172t-92.5 -129h154l-13 -78h-251v69q78 53 110 129.5t32 177.5q0 65 -12.5 117t-38.5 88t-65 55t-93 19q-56 0 -96 -19t-66.5 -55 t-39 -88t-12.5 -117q0 -102 33.5 -177.5t108.5 -129.5v-69h-261v78h148zM148 714l-81 -154h-72l59 154h94z" glyph-name="Omegatonos" horiz-adv-x="812" unicode="Ώ"/><glyph d="M68 517h87v-369q0 -46 13 -66.5t48 -20.5q15 0 28.5 2.5t20.5 4.5l12 -68q-12 -4 -34.5 -7.5t-50.5 -3.5q-66 0 -95 37t-29 103v388zM-53 710h84v-91h-84v91zM214 710h85v-91h-85v91zM195 745l-72 -154h-65l50 154h87z" glyph-name="iotadieresistonos" horiz-adv-x="276" unicode="ΐ"/><glyph d="M289 714h97l277 -714h-100l-75 199h-306l-75 -199h-96zM460 279l-126 331l-124 -331h250z" glyph-name="Alpha" horiz-adv-x="674" unicode="Α"/><glyph d="M79 714h237q76 0 125 -14.5t77.5 -39t39.5 -58t11 -71.5q0 -49 -22.5 -88t-78.5 -65q36 -14 59.5 -32.5t38 -41t20 -47t5.5 -50.5q0 -44 -13.5 -81.5t-43.5 -65.5t-79 -44t-121 -16h-255v714zM328 412q81 0 116 29.5t35 86.5q0 58 -37.5 84t-128.5 26h-144v-226h159z M331 76q49 0 81.5 9t52 25.5t27 40t7.5 53.5q0 63 -37 96.5t-124 33.5h-169v-258h162z" glyph-name="Beta" horiz-adv-x="632" unicode="Β"/><glyph d="M79 714h435v-81h-343v-633h-92v714z" glyph-name="Gamma" horiz-adv-x="526" unicode="Γ"/><glyph d="M328 611l-195 -531h390zM283 714h93l271 -714h-635z" glyph-name="uni0394" horiz-adv-x="659" unicode="Δ"/><glyph d="M79 714h462v-81h-370v-224h350v-82h-350v-246h389l-15 -81h-466v714z" glyph-name="Epsilon" horiz-adv-x="594" unicode="Ε"/><glyph d="M31 71l410 562h-403v81h512v-72l-409 -560h421l-14 -82h-517v71z" glyph-name="Zeta" horiz-adv-x="586" unicode="Ζ"/><glyph d="M79 714h92v-302h361v302h92v-714h-92v326h-361v-326h-92v714z" glyph-name="Eta" horiz-adv-x="703" unicode="Η"/><glyph d="M229 409h309v-80h-309v80zM383 -18q-73 0 -133.5 24.5t-104 72t-67.5 117.5t-24 160t24.5 160t68 118t104 73t132.5 25q73 0 133.5 -24.5t103.5 -72t67 -117t24 -159.5t-23.5 -160.5t-66.5 -118.5t-103.5 -73t-134.5 -25zM383 62q57 0 100.5 21t72.5 59.5t44 93t15 121.5 q0 66 -15 120.5t-44.5 93.5t-72.5 60t-100 21q-58 0 -101.5 -21t-73 -60t-44 -93.5t-14.5 -120.5q0 -67 14.5 -121.5t43.5 -93t72.5 -59.5t102.5 -21z" glyph-name="Theta" horiz-adv-x="765" unicode="Θ"/><glyph d="M79 714h92v-714h-92v714z" glyph-name="Iota" horiz-adv-x="250" unicode="Ι"/><glyph d="M79 714h93v-342l335 342h105l-255 -267l281 -447h-106l-242 386l-118 -118v-268h-93v714z" glyph-name="Kappa" horiz-adv-x="650" unicode="Κ"/><glyph d="M651 0h-103l-219 598l-219 -598h-99l273 714h93z" glyph-name="Lambda" horiz-adv-x="662" unicode="Λ"/><glyph d="M79 714h114l230 -604l234 604h110v-714h-85v563l-224 -563h-75l-220 561v-561h-84v714z" glyph-name="Mu" horiz-adv-x="846" unicode="Μ"/><glyph d="M79 714h91l363 -567v567h89v-714h-88l-366 564v-564h-89v714z" glyph-name="Nu" horiz-adv-x="701" unicode="Ν"/><glyph d="M65 409h422v-81h-422v81zM45 714h462v-82h-462v82zM517 82l-15 -82h-462v82h477z" glyph-name="Xi" horiz-adv-x="554" unicode="Ξ"/><glyph d="M383 -18q-73 0 -133.5 24.5t-104 72t-67.5 117.5t-24 160t24.5 160t68 118t104 73t132.5 25q73 0 133.5 -24.5t103.5 -72t67 -117t24 -159.5t-23.5 -160.5t-66.5 -118.5t-103.5 -73t-134.5 -25zM383 62q57 0 100.5 21t72.5 59.5t44 93t15 121.5q0 66 -15 120.5 t-44.5 93.5t-72.5 60t-100 21q-58 0 -101.5 -21t-73 -60t-44 -93.5t-14.5 -120.5q0 -67 14.5 -121.5t43.5 -93t72.5 -59.5t102.5 -21z" glyph-name="Omicron" horiz-adv-x="765" unicode="Ο"/><glyph d="M518 633h-347v-633h-92v714h532v-714h-93v633z" glyph-name="Pi" horiz-adv-x="689" unicode="Π"/><glyph d="M79 714h239q79 0 130.5 -17t81 -46t41 -67.5t11.5 -81.5q0 -45 -12 -86t-42 -72t-81 -49t-129 -18h-148v-277h-91v714zM317 355q52 0 86 10t53 29t26.5 45.5t7.5 59.5q0 34 -8 60t-28 43t-53.5 25.5t-84.5 8.5h-146v-281h147z" glyph-name="Rho" horiz-adv-x="626" unicode="Ρ"/><glyph d="M276 366l-239 277v71h502v-82h-387l227 -266l-242 -284h414l-15 -82h-505v72z" glyph-name="Sigma" horiz-adv-x="575" unicode="Σ"/><glyph d="M254 632h-236v82h565v-82h-236v-632h-93v632z" glyph-name="Tau" horiz-adv-x="601" unicode="Τ"/><glyph d="M262 303l-249 411h106l189 -330l194 330h97l-244 -411v-303h-93v303z" glyph-name="Upsilon" horiz-adv-x="613" unicode="Υ"/><glyph d="M368 90q-70 4 -129 23t-101.5 54.5t-66.5 87.5t-24 124q0 70 23 123t65 90t101.5 57.5t131.5 24.5v80h90v-79q72 -4 131 -24.5t101.5 -57t65.5 -89.5t23 -123q0 -72 -24.5 -124.5t-68 -88t-102 -54.5t-126.5 -24v-90h-90v90zM685 382q0 97 -56 153.5t-171 64.5v-436 q112 9 169.5 60.5t57.5 157.5zM142 382q0 -108 58.5 -158.5t167.5 -59.5v436q-118 -8 -172 -64.5t-54 -153.5z" glyph-name="Phi" horiz-adv-x="827" unicode="Φ"/><glyph d="M263 377l-233 337h108l180 -271l183 271h99l-231 -341l258 -373h-107l-207 304l-201 -304h-101z" glyph-name="Chi" horiz-adv-x="638" unicode="Χ"/><glyph d="M158 714v-209q0 -60 14 -103.5t41 -72t66 -42.5t89 -17v444h92v-444q98 5 154 60.5t56 174.5v209h91v-205q0 -77 -21.5 -134t-61 -96t-95 -60t-123.5 -25v-194h-92v194q-67 3 -122.5 22t-95 56.5t-61.5 96t-22 141.5v204h91z" glyph-name="Psi" horiz-adv-x="828" unicode="Ψ"/><glyph d="M189 78q-54 51 -88.5 125t-34.5 171q0 88 22.5 155t63.5 112t97.5 68t124.5 23t124 -22.5t96 -66.5t62 -110.5t22 -153.5q0 -97 -34.5 -172t-92.5 -129h154l-13 -78h-251v69q78 53 110 129.5t32 177.5q0 65 -12.5 117t-38.5 88t-65 55t-93 19q-56 0 -96 -19t-66.5 -55 t-39 -88t-12.5 -117q0 -102 33.5 -177.5t108.5 -129.5v-69h-261v78h148z" glyph-name="Omega" horiz-adv-x="743" unicode="Ω"/><glyph d="M79 714h92v-714h-92v714zM-10 892h91v-102h-91v102zM169 892h92v-102h-92v102z" glyph-name="Iotadieresis" horiz-adv-x="250" unicode="Ϊ"/><glyph d="M262 303l-249 411h106l189 -330l194 330h97l-244 -411v-303h-93v303zM164 892h91v-102h-91v102zM343 892h92v-102h-92v102z" glyph-name="Upsilondieresis" horiz-adv-x="613" unicode="Ϋ"/><glyph d="M525 250l34 -113q14 -46 25.5 -63t34.5 -17q10 0 20.5 2.5t15.5 4.5l15 -64q-9 -3 -28 -9t-39 -6q-38 0 -62.5 19t-41.5 73l-26 85q-14 -33 -31 -65t-41 -57t-56.5 -40.5t-75.5 -15.5q-57 0 -99 20.5t-69.5 56.5t-41.5 85t-14 106q0 134 61.5 207.5t172.5 73.5 q83 0 130 -45.5t76 -133.5l60 163h84zM275 56q30 0 53.5 14t43 39.5t36 62.5t34.5 84q-15 51 -29.5 89.5t-33 64t-43 38.5t-58.5 13q-67 0 -104 -52t-37 -156q0 -90 35.5 -143.5t102.5 -53.5zM409 745l-91 -154h-72l69 154h94z" glyph-name="alphatonos" horiz-adv-x="673" unicode="ά"/><glyph d="M66 386q0 31 12.5 58t38.5 46.5t67.5 31t99.5 11.5q51 0 87 -11t60.5 -30t38 -45t19.5 -56l-78 -13q-4 17 -11.5 32.5t-22.5 27.5t-38.5 19t-58.5 7q-66 0 -97 -21t-31 -60q0 -43 26 -62.5t77 -19.5h104v-68h-101q-117 0 -117 -87q0 -48 32 -70.5t107 -22.5q39 0 64 6.5 t40 19t22 30.5t10 41h82q-2 -35 -14 -65t-37.5 -52.5t-67 -35.5t-102.5 -13q-116 0 -170.5 42.5t-54.5 115.5q0 51 26.5 83.5t70.5 45.5q-36 13 -59.5 42t-23.5 73zM391 745l-91 -154h-72l69 154h94z" glyph-name="epsilontonos" horiz-adv-x="532" unicode="έ"/><glyph d="M67 517h86v-79q38 51 84 73t97 22q88 0 130.5 -48t42.5 -141v-538h-87v521q0 72 -26 101.5t-80 29.5q-29 0 -57.5 -10t-51.5 -32q-25 -22 -38 -46.5t-13 -63.5v-306h-87v517zM413 745l-91 -154h-72l69 154h94z" glyph-name="etatonos" horiz-adv-x="571" unicode="ή"/><glyph d="M68 517h87v-369q0 -46 13 -66.5t48 -20.5q15 0 28.5 2.5t20.5 4.5l12 -68q-12 -4 -34.5 -7.5t-50.5 -3.5q-66 0 -95 37t-29 103v388zM236 745l-91 -154h-72l69 154h94z" glyph-name="iotatonos" horiz-adv-x="276" unicode="ί"/><glyph d="M277 -16q-51 0 -91 12.5t-67 40.5t-41.5 73.5t-14.5 110.5v296h87v-296q0 -85 30.5 -124t97.5 -39q68 0 97 39t29 124v296h88v-296q0 -65 -15.5 -110.5t-43.5 -73.5t-68 -40.5t-88 -12.5zM110 710h84v-91h-84v91zM377 710h85v-91h-85v91zM358 745l-72 -154h-65l50 154h87 z" glyph-name="upsilondieresistonos" horiz-adv-x="554" unicode="ΰ"/><glyph d="M525 250l34 -113q14 -46 25.5 -63t34.5 -17q10 0 20.5 2.5t15.5 4.5l15 -64q-9 -3 -28 -9t-39 -6q-38 0 -62.5 19t-41.5 73l-26 85q-14 -33 -31 -65t-41 -57t-56.5 -40.5t-75.5 -15.5q-57 0 -99 20.5t-69.5 56.5t-41.5 85t-14 106q0 134 61.5 207.5t172.5 73.5 q83 0 130 -45.5t76 -133.5l60 163h84zM275 56q30 0 53.5 14t43 39.5t36 62.5t34.5 84q-15 51 -29.5 89.5t-33 64t-43 38.5t-58.5 13q-67 0 -104 -52t-37 -156q0 -90 35.5 -143.5t102.5 -53.5z" glyph-name="alpha" horiz-adv-x="673" unicode="α"/><glyph d="M67 504q0 102 57.5 160t160.5 58q51 0 89 -13.5t63.5 -37.5t38 -56t12.5 -69q0 -60 -27.5 -97t-68.5 -55q28 -7 54.5 -21.5t47 -38.5t33 -57.5t12.5 -76.5q0 -56 -18.5 -96t-49 -65.5t-69 -38t-78.5 -12.5q-49 0 -95.5 19t-76.5 61v-262h-85v698zM152 226q0 -45 14.5 -77 t37.5 -52t51.5 -29t56.5 -9q69 0 104.5 37t35.5 101q0 66 -39 106.5t-122 40.5h-51v70h35q54 0 90 31t36 94q0 112 -116 112q-69 0 -101 -38.5t-32 -115.5v-271z" glyph-name="beta" horiz-adv-x="584" unicode="β"/><glyph d="M216 19l-209 498h101l154 -402l156 402h97l-212 -501v-210h-87v213z" glyph-name="gamma" horiz-adv-x="522" unicode="γ"/><glyph d="M49 225q0 47 14.5 85.5t39 68t56.5 50t67 32.5q-48 28 -75.5 59t-27.5 74q0 25 11 48t33.5 41t57.5 28.5t83 10.5q94 0 142.5 -40t53.5 -104l-78 -11q-10 50 -39 68.5t-81 18.5q-101 0 -101 -59q0 -18 10 -31t28 -25.5t43 -26t55 -30.5q53 -30 90 -59.5t59.5 -60 t32.5 -64t10 -72.5q0 -47 -15 -90.5t-45 -77t-75.5 -54t-107.5 -20.5q-55 0 -99.5 17.5t-76 49t-48.5 76t-17 98.5zM294 422q-77 -20 -115 -72.5t-38 -122.5q0 -84 40.5 -127.5t110.5 -43.5q77 0 113.5 47t36.5 120q0 38 -11.5 68t-31 53.5t-47 42.5t-58.5 35z" glyph-name="delta" horiz-adv-x="573" unicode="δ"/><glyph d="M66 386q0 31 12.5 58t38.5 46.5t67.5 31t99.5 11.5q51 0 87 -11t60.5 -30t38 -45t19.5 -56l-78 -13q-4 17 -11.5 32.5t-22.5 27.5t-38.5 19t-58.5 7q-66 0 -97 -21t-31 -60q0 -43 26 -62.5t77 -19.5h104v-68h-101q-117 0 -117 -87q0 -48 32 -70.5t107 -22.5q39 0 64 6.5 t40 19t22 30.5t10 41h82q-2 -35 -14 -65t-37.5 -52.5t-67 -35.5t-102.5 -13q-116 0 -170.5 42.5t-54.5 115.5q0 51 26.5 83.5t70.5 45.5q-36 13 -59.5 42t-23.5 73z" glyph-name="epsilon" horiz-adv-x="532" unicode="ε"/><glyph d="M50 238q0 63 29 122t72.5 111t94 95.5t94.5 76.5h-260v71h379v-65q-48 -34 -103.5 -79t-103 -97t-79 -110t-31.5 -118q0 -37 7 -63.5t23 -46t41.5 -33.5t62.5 -25l63 -19q77 -24 110 -56.5t33 -83.5q0 -21 -6 -39.5t-15.5 -34.5t-20.5 -28t-21 -21l-53 44 q11 12 22.5 29.5t11.5 40.5q0 25 -20.5 43t-69.5 32l-66 19q-104 31 -149 86.5t-45 148.5z" glyph-name="zeta" horiz-adv-x="475" unicode="ζ"/><glyph d="M67 517h86v-79q38 51 84 73t97 22q88 0 130.5 -48t42.5 -141v-538h-87v521q0 72 -26 101.5t-80 29.5q-29 0 -57.5 -10t-51.5 -32q-25 -22 -38 -46.5t-13 -63.5v-306h-87v517z" glyph-name="eta" horiz-adv-x="571" unicode="η"/><glyph d="M296 -17q-117 0 -181.5 90t-64.5 277q0 188 67 280t183 92q118 0 181 -91.5t63 -280.5q0 -187 -65 -277t-183 -90zM298 650q-43 0 -72.5 -18.5t-48 -52.5t-27.5 -82t-11 -107h315q-2 59 -11 107t-27 82t-47 52.5t-71 18.5zM299 55q43 0 72.5 18.5t47.5 52.5t26 83t10 109 h-316q2 -60 11.5 -108.5t28 -83t48.5 -53t72 -18.5z" glyph-name="theta" horiz-adv-x="594" unicode="θ"/><glyph d="M68 517h87v-369q0 -46 13 -66.5t48 -20.5q15 0 28.5 2.5t20.5 4.5l12 -68q-12 -4 -34.5 -7.5t-50.5 -3.5q-66 0 -95 37t-29 103v388z" glyph-name="iota" horiz-adv-x="276" unicode="ι"/><glyph d="M67 517h86v-247l244 247h102l-180 -187l202 -330h-99l-166 274l-103 -100v-174h-86v517z" glyph-name="kappa" horiz-adv-x="524" unicode="κ"/><glyph d="M516 0h-97l-152 423l-165 -423h-95l220 523l-21 53q-17 44 -35 59t-45 15q-24 0 -54 -11l-19 68q19 8 40.5 12.5t44.5 4.5q52 0 86.5 -25.5t60.5 -93.5z" glyph-name="lambda" horiz-adv-x="523" unicode="λ"/><glyph d="M154 517v-315q0 -41 6 -68.5t19 -44t33 -23.5t48 -7q26 0 53 11t48 31q20 18 34.5 43.5t14.5 57.5v315h87v-517h-86v78q-68 -93 -162 -93q-22 0 -49 6.5t-46 27.5v-214h-87v712h87z" glyph-name="uni03BC" horiz-adv-x="564" unicode="μ"/><glyph d="M7 517h101l154 -420l157 420h96l-208 -517h-93z" glyph-name="nu" horiz-adv-x="521" unicode="ν"/><glyph d="M356 57q41 -9 68 -23.5t42.5 -32.5t22 -39.5t6.5 -43.5q0 -20 -6 -38.5t-15.5 -34.5t-20.5 -28.5t-21 -21.5l-53 44q11 12 22.5 29.5t11.5 40.5q0 53 -91 75l-88 20q-100 23 -145.5 74.5t-45.5 130.5q0 69 31 113t85 64q-45 17 -71 58t-26 99q0 39 13.5 73t41 60t69.5 41 t99 15q91 0 144 -39t62 -117l-78 -13q-10 52 -40 75.5t-90 23.5q-70 0 -102 -32.5t-32 -85.5q0 -63 33.5 -93t81.5 -30h117v-70h-108q-68 0 -104.5 -32.5t-36.5 -99.5q0 -65 36.5 -96.5t104.5 -46.5z" glyph-name="xi" horiz-adv-x="502" unicode="ξ"/><glyph d="M297 -16q-118 0 -182.5 73t-64.5 200q0 63 17.5 114t50 87t78.5 55.5t103 19.5q58 0 104 -19t77.5 -54.5t48.5 -85.5t17 -113t-17 -114.5t-49.5 -87.5t-78.5 -55.5t-104 -19.5zM298 56q42 0 71.5 15t48 42t27.5 64.5t9 82.5q0 44 -9 81t-27.5 63.5t-48 41.5t-71.5 15 t-71.5 -15t-48 -41.5t-27.5 -63.5t-9 -82t9 -82t27.5 -64t48 -42t71.5 -15z" glyph-name="omicron" horiz-adv-x="596" unicode="ο"/><glyph d="M387 445h-190v-445h-87v445h-95v72h560v-72h-101v-311q0 -39 12.5 -57t40.5 -18q11 0 20.5 1t15.5 3l10 -66q-11 -4 -29 -7t-40 -3q-63 0 -90 37t-27 109v312z" glyph-name="pi" horiz-adv-x="602" unicode="π"/><glyph d="M545 258q0 -59 -15 -109t-44 -87t-72 -57.5t-99 -20.5q-51 0 -92 20.5t-70 58.5v-257h-87v464q0 66 18 115.5t50 82t76.5 49t97.5 16.5q117 0 177 -73.5t60 -201.5zM453 260q0 55 -11 93t-30.5 62t-46.5 35t-60 11q-32 0 -60 -11t-48.5 -34.5t-32.5 -59t-12 -84.5v-37 q0 -86 40 -132.5t114 -46.5q32 0 59 12t46.5 37t30.5 63.5t11 91.5z" glyph-name="rho" horiz-adv-x="596" unicode="ρ"/><glyph d="M381 -161q11 11 22.5 28.5t11.5 41.5q0 30 -25 47.5t-66 27.5l-64 15q-58 13 -98 35t-64.5 54t-35 75.5t-10.5 99.5q0 55 15.5 104.5t46.5 86t76.5 58t105.5 21.5q88 0 142.5 -42t70.5 -132l-86 -16q-10 56 -39.5 87t-87.5 31q-41 0 -69.5 -16t-47.5 -42.5t-27.5 -61.5 t-8.5 -73q0 -50 8 -83t25.5 -54t43.5 -33.5t62 -21.5l69 -17q78 -20 112 -53t34 -86q0 -22 -6 -41t-15.5 -35t-20.5 -28.5t-21 -20.5z" glyph-name="sigma1" horiz-adv-x="533" unicode="ς"/><glyph d="M289 -16q-59 0 -103.5 18.5t-74.5 53t-45.5 83.5t-15.5 109q0 57 16.5 106t51 85t87 57t123.5 21h237v-72h-121q46 -41 67.5 -98t21.5 -113q0 -53 -15.5 -99t-46 -79.5t-76 -52.5t-106.5 -19zM290 56q43 0 72.5 14.5t48 39.5t26.5 58.5t8 71.5q0 60 -18.5 111.5 t-62.5 93.5h-45q-82 0 -129.5 -46t-47.5 -148q0 -40 7.5 -75.5t24.5 -62t45.5 -42t70.5 -15.5z" glyph-name="sigma" horiz-adv-x="599" unicode="σ"/><glyph d="M15 517h454v-72h-201v-281q0 -59 21.5 -82t69.5 -23q29 0 52.5 5.5t34.5 9.5l13 -67q-13 -5 -46 -12.5t-71 -7.5q-84 0 -122.5 40.5t-38.5 120.5v297h-166v72z" glyph-name="tau" horiz-adv-x="496" unicode="τ"/><glyph d="M277 -16q-51 0 -91 12.5t-67 40.5t-41.5 73.5t-14.5 110.5v296h87v-296q0 -85 30.5 -124t97.5 -39q68 0 97 39t29 124v296h88v-296q0 -65 -15.5 -110.5t-43.5 -73.5t-68 -40.5t-88 -12.5z" glyph-name="upsilon" horiz-adv-x="554" unicode="υ"/><glyph d="M380 533q87 0 149.5 -21.5t103 -59t59.5 -88t19 -108.5t-20 -105.5t-57.5 -83t-91 -56.5t-120.5 -25v-180h-85v181q-75 4 -130 25.5t-90 56.5t-52 83.5t-17 106.5q0 57 20 107t61 87t103.5 58.5t147.5 21.5zM140 262q0 -98 51 -149.5t146 -56.5v406q-91 -5 -144 -57 t-53 -143zM619 254q0 98 -51.5 150.5t-145.5 57.5v-406q88 6 142.5 55.5t54.5 142.5z" glyph-name="phi" horiz-adv-x="759" unicode="φ"/><glyph d="M278 264l128 253h91l-177 -333l117 -237q21 -44 37.5 -61.5t40.5 -17.5q23 0 44 11l21 -65q-17 -8 -35 -13.5t-47 -5.5q-51 0 -81.5 33t-58.5 92l-90 190l-162 -304h-91l209 386l-95 197q-17 35 -34 53t-42 18q-11 0 -20 -2.5t-20 -7.5l-22 64q20 10 37 14.5t43 4.5 q49 0 79.5 -30.5t56.5 -85.5z" glyph-name="chi" horiz-adv-x="523" unicode="χ"/><glyph d="M431 59q45 1 81 13.5t61.5 39.5t39 71t13.5 109v225h87v-239q0 -75 -22 -129.5t-60 -90t-89.5 -52.5t-110.5 -18v-182h-85v182q-60 1 -111.5 17.5t-89 51.5t-59 89.5t-21.5 131.5v239h86v-225q0 -63 13.5 -107t39 -71.5t61.5 -40.5t81 -14v458h85v-458z" glyph-name="psi" horiz-adv-x="777" unicode="ψ"/><glyph d="M400 94q-9 -23 -22 -43t-31.5 -35t-44.5 -23.5t-61 -8.5q-91 0 -141 65t-50 199q0 43 10 84.5t25.5 78.5t33 67t32.5 51l70 -37q-11 -17 -25.5 -41.5t-27 -56t-21 -69t-8.5 -80.5q0 -100 32 -144.5t80 -44.5q51 0 78.5 42.5t27.5 123.5v138h86v-138q0 -81 27.5 -123.5 t78.5 -42.5q48 0 80 44.5t32 144.5q0 42 -7.5 78.5t-19.5 67t-26.5 56t-28.5 45.5l70 37q16 -23 34 -53t32.5 -66t24 -77t9.5 -85q0 -127 -49.5 -195.5t-140.5 -68.5q-35 0 -61 8.5t-45 23.5t-31.5 35t-21.5 43z" glyph-name="omega" horiz-adv-x="800" unicode="ω"/><glyph d="M68 517h87v-369q0 -46 13 -66.5t48 -20.5q15 0 28.5 2.5t20.5 4.5l12 -68q-12 -4 -34.5 -7.5t-50.5 -3.5q-66 0 -95 37t-29 103v388zM-7 714h88v-99h-88v99zM167 714h89v-99h-89v99z" glyph-name="iotadieresis" horiz-adv-x="276" unicode="ϊ"/><glyph d="M277 -16q-51 0 -91 12.5t-67 40.5t-41.5 73.5t-14.5 110.5v296h87v-296q0 -85 30.5 -124t97.5 -39q68 0 97 39t29 124v296h88v-296q0 -65 -15.5 -110.5t-43.5 -73.5t-68 -40.5t-88 -12.5zM153 714h88v-99h-88v99zM327 714h89v-99h-89v99z" glyph-name="upsilondieresis" horiz-adv-x="554" unicode="ϋ"/><glyph d="M297 -16q-118 0 -182.5 73t-64.5 200q0 63 17.5 114t50 87t78.5 55.5t103 19.5q58 0 104 -19t77.5 -54.5t48.5 -85.5t17 -113t-17 -114.5t-49.5 -87.5t-78.5 -55.5t-104 -19.5zM298 56q42 0 71.5 15t48 42t27.5 64.5t9 82.5q0 44 -9 81t-27.5 63.5t-48 41.5t-71.5 15 t-71.5 -15t-48 -41.5t-27.5 -63.5t-9 -82t9 -82t27.5 -64t48 -42t71.5 -15zM416 745l-91 -154h-72l69 154h94z" glyph-name="omicrontonos" horiz-adv-x="596" unicode="ό"/><glyph d="M277 -16q-51 0 -91 12.5t-67 40.5t-41.5 73.5t-14.5 110.5v296h87v-296q0 -85 30.5 -124t97.5 -39q68 0 97 39t29 124v296h88v-296q0 -65 -15.5 -110.5t-43.5 -73.5t-68 -40.5t-88 -12.5zM402 745l-91 -154h-72l69 154h94z" glyph-name="upsilontonos" horiz-adv-x="554" unicode="ύ"/><glyph d="M400 94q-9 -23 -22 -43t-31.5 -35t-44.5 -23.5t-61 -8.5q-91 0 -141 65t-50 199q0 43 10 84.5t25.5 78.5t33 67t32.5 51l70 -37q-11 -17 -25.5 -41.5t-27 -56t-21 -69t-8.5 -80.5q0 -100 32 -144.5t80 -44.5q51 0 78.5 42.5t27.5 123.5v138h86v-138q0 -81 27.5 -123.5 t78.5 -42.5q48 0 80 44.5t32 144.5q0 42 -7.5 78.5t-19.5 67t-26.5 56t-28.5 45.5l70 37q16 -23 34 -53t32.5 -66t24 -77t9.5 -85q0 -127 -49.5 -195.5t-140.5 -68.5q-35 0 -61 8.5t-45 23.5t-31.5 35t-21.5 43zM518 745l-91 -154h-72l69 154h94z" glyph-name="omegatonos" horiz-adv-x="800" unicode="ώ"/><glyph d="M79 714h462v-81h-370v-224h350v-82h-350v-246h389l-15 -81h-466v714zM282 908l117 -135h-87l-138 135h108z" glyph-name="uni0400" horiz-adv-x="594" unicode="Ѐ"/><glyph d="M79 714h462v-81h-370v-224h350v-82h-350v-246h389l-15 -81h-466v714zM177 892h91v-102h-91v102zM356 892h92v-102h-92v102z" glyph-name="afii10023" horiz-adv-x="594" unicode="Ё"/><glyph d="M304 412q38 14 83 21.5t89 7.5q77 0 128.5 -17.5t82 -47.5t43 -70.5t12.5 -86.5q0 -49 -15.5 -89.5t-49.5 -69t-87.5 -44.5t-129.5 -16h-43v79h47q99 0 142.5 33.5t43.5 104.5q0 35 -9 62.5t-30.5 46t-57.5 28t-90 9.5q-42 0 -84 -7t-75 -21v-335h-92v633h-197v81h544 v-81h-255v-221z" glyph-name="afii10051" horiz-adv-x="778" unicode="Ђ"/><glyph d="M79 714h435v-81h-343v-633h-92v714zM340 908h108l-138 -135h-87z" glyph-name="afii10052" horiz-adv-x="526" unicode="Ѓ"/><glyph d="M663 212q-17 -108 -91 -169t-197 -61q-74 0 -133.5 24.5t-101 72.5t-64 118t-22.5 162q0 93 25.5 163t69.5 116.5t102.5 70t123.5 23.5q117 0 184.5 -55t90.5 -152l-90 -16q-19 70 -62.5 106.5t-124.5 36.5q-47 0 -85.5 -17t-67.5 -48.5t-47 -77t-23 -102.5h317v-80h-318 q3 -61 20 -110t46 -83.5t69.5 -53t90.5 -18.5q46 0 79.5 11t56 30.5t36 47t20.5 61.5h96z" glyph-name="afii10053" horiz-adv-x="713" unicode="Є"/><glyph d="M131 203q12 -76 60 -109t141 -33q45 0 76 9.5t50.5 27t28.5 41t9 51.5q0 25 -7 45t-23.5 36t-44 27t-69.5 18l-76 13q-54 10 -95.5 25t-69.5 39t-42 58.5t-14 83.5q0 51 20.5 88t56.5 61t84 36t102 12q69 0 116 -15.5t77.5 -41t47 -59t24.5 -69.5l-86 -17q-9 31 -21.5 54 t-33 38.5t-50 23.5t-72.5 8q-48 0 -81 -9t-53 -24.5t-29 -37t-9 -45.5q0 -27 6.5 -47t23 -34.5t44 -24.5t70.5 -16l87 -16q109 -20 162 -69t53 -143q0 -46 -17.5 -84t-51.5 -65t-82.5 -42t-110.5 -15q-127 0 -205 52t-88 169h92z" glyph-name="afii10054" horiz-adv-x="643" unicode="Ѕ"/><glyph d="M171 714v-714h-92v714h92z" glyph-name="afii10055" horiz-adv-x="250" unicode="І"/><glyph d="M79 714h92v-714h-92v714zM-10 892h91v-102h-91v102zM169 892h92v-102h-92v102z" glyph-name="afii10056" horiz-adv-x="250" unicode="Ї"/><glyph d="M120 214q9 -66 40.5 -105t99.5 -43q38 -4 72 5q31 8 50.5 24.5t30.5 41.5t15 58t4 73v446h93v-479q0 -65 -17.5 -112.5t-49.5 -78.5t-76.5 -46.5t-99.5 -15.5q-113 0 -178 55.5t-77 176.5h93z" glyph-name="afii10057" horiz-adv-x="597" unicode="Ј"/><glyph d="M776 447q76 0 126.5 -18.5t80 -49.5t41.5 -71.5t12 -83.5q0 -45 -12 -86t-42.5 -71.5t-82.5 -48.5t-131 -18h-234v635h-203l-32 -260q-12 -102 -33.5 -174t-54 -118t-77 -67.5t-103.5 -21.5h-21v81h13q37 0 66.5 16t53 55t41 105t29.5 167l36 296h377v-267h150zM626 369 v-291h149q48 0 80.5 9t52 27t28 44.5t8.5 61.5q0 34 -7.5 61.5t-28 47t-56 30t-90.5 10.5h-136z" glyph-name="afii10058" horiz-adv-x="1077" unicode="Љ"/><glyph d="M502 342h-331v-342h-92v714h92v-291h331v291h92v-291h149q75 0 125 -17.5t80 -47t42.5 -67.5t12.5 -79q0 -43 -12.5 -81.5t-43.5 -67.5t-82.5 -46t-129.5 -17h-233v342zM594 343v-265h147q48 0 81 8.5t52.5 25t28 40.5t8.5 56t-8 57t-28 42.5t-53.5 26.5t-84.5 9h-143z " glyph-name="afii10059" horiz-adv-x="1043" unicode="Њ"/><glyph d="M295 396q32 13 72 22t85 9q67 0 113.5 -14.5t76 -43t42.5 -69.5t13 -95v-205h-92v179q0 44 -7.5 76.5t-26 53.5t-50 31.5t-80.5 10.5q-38 0 -75.5 -8t-70.5 -22v-321h-92v634h-188v80h535v-80h-255v-238z" glyph-name="afii10060" horiz-adv-x="768" unicode="Ћ"/><glyph d="M171 408h48q48 0 82.5 26t60.5 82l45 95q28 59 63.5 81t85.5 22q20 0 36 -2.5t23 -4.5l-10 -76q-6 1 -11 2t-11 1.5t-13 0.5q-15 0 -27.5 -2.5t-23.5 -10t-22 -21.5t-21 -37l-41 -87q-36 -74 -92 -100q26 -8 45 -25.5t42 -51.5l204 -300h-109l-167 248q-16 24 -29 39.5 t-27 24.5t-30.5 12.5t-39.5 3.5h-61v-328h-92v714h92v-306zM375 908h108l-138 -135h-87z" glyph-name="afii10061" horiz-adv-x="640" unicode="Ќ"/><glyph d="M521 0v564l-352 -564h-90v714h90v-565l351 565h90v-714h-89zM301 908l117 -135h-87l-138 135h108z" glyph-name="uni040D" horiz-adv-x="689" unicode="Ѝ"/><glyph d="M41 74q11 -5 31.5 -10.5t45.5 -5.5q42 0 71.5 23t55.5 79l17 38l-254 516h99l200 -426l168 426h96l-230 -543q-21 -50 -42.5 -85.5t-48 -58.5t-59.5 -34t-77 -11q-29 0 -53.5 6t-38.5 13zM201 909q2 -38 25 -59.5t64 -21.5t64 21.5t26 59.5h66q0 -62 -40.5 -100.5 t-115.5 -38.5q-77 0 -116 38.5t-39 100.5h66z" glyph-name="afii10062" horiz-adv-x="574" unicode="Ў"/><glyph d="M171 81h344v633h92v-714h-216v-173h-86v173h-226v714h92v-633z" glyph-name="afii10145" horiz-adv-x="686" unicode="Џ"/><glyph d="M334 610l-124 -331h250zM386 714l277 -714h-100l-75 199h-306l-75 -199h-96l278 714h97z" glyph-name="afii10017" horiz-adv-x="674" unicode="А"/><glyph d="M79 714h427v-81h-335v-196h158q76 0 125.5 -18t79 -48.5t41 -70.5t11.5 -83q0 -44 -12 -83.5t-42 -69t-81.5 -47t-130.5 -17.5h-241v714zM171 359v-281h156q48 0 80.5 8.5t51.5 26t27 43t8 58.5t-8 60t-28.5 45.5t-55 29t-88.5 10.5h-143z" glyph-name="afii10018" horiz-adv-x="627" unicode="Б"/><glyph d="M331 76q50 0 82.5 9t51.5 25.5t26.5 40t7.5 53.5q0 62 -37 96t-123 34h-170v-258h162zM329 412q81 0 115.5 30t34.5 86q0 58 -37.5 84t-128.5 26h-144v-226h160zM316 714q76 0 125 -14.5t77.5 -39t39.5 -58t11 -70.5q0 -49 -22 -89t-79 -65q36 -14 59.5 -33t38 -41 t20 -47t5.5 -50q0 -44 -13.5 -81.5t-43.5 -65.5t-79 -44t-121 -16h-255v714h237z" glyph-name="afii10019" horiz-adv-x="632" unicode="В"/><glyph d="M79 714h435v-81h-343v-633h-92v714z" glyph-name="afii10020" horiz-adv-x="526" unicode="Г"/><glyph d="M66 81q57 61 92.5 187t52.5 296l15 150h398v-633h70v-254h-86v173h-518v-173h-86v254h62zM296 526q-15 -152 -45 -264.5t-80 -180.5h361v554h-225z" glyph-name="afii10021" horiz-adv-x="716" unicode="Д"/><glyph d="M541 714v-81h-370v-224h350v-82h-350v-246h389l-15 -81h-466v714h462z" glyph-name="afii10022" horiz-adv-x="594" unicode="Е"/><glyph d="M302 377q-31 11 -55 36.5t-44 73.5l-33 80q-15 36 -33.5 52t-47.5 16q-8 0 -16 -0.5t-15 -1.5q-8 -1 -15 -2l-12 76q10 1 21 3q9 2 20 3t20 1q28 0 49 -4t38.5 -15.5t32 -32t28.5 -53.5l38 -88q24 -57 61 -85.5t91 -28.5h25v307h92v-307h28q54 0 88.5 29t60.5 85l41 88 q15 32 32 52.5t36.5 32t41.5 16t48 4.5q9 0 17.5 -1t16.5 -3q9 -2 17 -3l-10 -76l-12 2q-5 1 -12.5 1.5t-15.5 0.5q-34 0 -53.5 -16t-35.5 -52l-36 -80q-36 -81 -96 -110q26 -8 47 -28.5t48 -59.5l196 -289h-109l-164 245q-18 27 -33 43t-31.5 25t-36.5 12t-47 3h-26v-328 h-92v328h-29q-27 0 -46.5 -3t-36 -12t-31 -25t-32.5 -43l-162 -245h-109l194 289q28 42 49 61t50 27z" glyph-name="afii10024" horiz-adv-x="1003" unicode="Ж"/><glyph d="M128 191q6 -40 20.5 -65.5t37 -40.5t53 -20.5t69.5 -5.5q85 0 127.5 35.5t42.5 104.5q0 70 -43 101.5t-120 31.5h-99v78h102q66 0 105.5 32t39.5 96q0 57 -39 87t-114 30q-38 0 -65.5 -6t-48.5 -19.5t-35.5 -36.5t-25.5 -56l-85 13q7 38 26.5 71t51.5 58t78 39t108 14 q61 0 105.5 -14.5t74 -40t44 -59t14.5 -70.5q0 -55 -23.5 -99t-76.5 -70q60 -23 88 -69.5t28 -109.5q0 -48 -16 -88t-48.5 -69t-82 -45t-115.5 -16q-72 0 -122.5 17.5t-82 46.5t-46 66.5t-15.5 78.5h88z" glyph-name="afii10025" horiz-adv-x="617" unicode="З"/><glyph d="M521 0v564l-352 -564h-90v714h90v-565l351 565h90v-714h-89z" glyph-name="afii10026" horiz-adv-x="689" unicode="И"/><glyph d="M521 0v564l-352 -564h-90v714h90v-565l351 565h90v-714h-89zM255 909q2 -38 25 -59.5t64 -21.5t64 21.5t26 59.5h66q0 -62 -40.5 -100.5t-115.5 -38.5q-77 0 -116 38.5t-39 100.5h66z" glyph-name="afii10027" horiz-adv-x="689" unicode="Й"/><glyph d="M171 408h48q48 0 82.5 26t60.5 82l45 95q28 59 63.5 81t85.5 22q20 0 36 -2.5t23 -4.5l-10 -76q-6 1 -11 2t-11 1.5t-13 0.5q-15 0 -27.5 -2.5t-23.5 -10t-22 -21.5t-21 -37l-41 -87q-36 -74 -92 -100q26 -8 45 -25.5t42 -51.5l204 -300h-109l-167 248q-16 24 -29 39.5 t-27 24.5t-30.5 12.5t-39.5 3.5h-61v-328h-92v714h92v-306z" glyph-name="afii10028" horiz-adv-x="640" unicode="К"/><glyph d="M556 635h-226l-32 -260q-12 -102 -33.5 -174t-54 -118t-77 -67.5t-103.5 -21.5h-21v81h13q37 0 66.5 16t53 55t41 105t29.5 167l36 296h401v-714h-93v635z" glyph-name="afii10029" horiz-adv-x="727" unicode="Л"/><glyph d="M79 714h114l230 -604l234 604h110v-714h-85v563l-224 -563h-75l-220 561v-561h-84v714z" glyph-name="afii10030" horiz-adv-x="846" unicode="М"/><glyph d="M171 714v-302h360v302h93v-714h-93v326h-360v-326h-92v714h92z" glyph-name="afii10031" horiz-adv-x="703" unicode="Н"/><glyph d="M383 62q57 0 100.5 21t72.5 59.5t44 93t15 121.5t-15 121.5t-44.5 93t-72.5 59.5t-100 21q-59 0 -102.5 -21t-72.5 -59.5t-43.5 -93t-14.5 -121.5t14.5 -121.5t43.5 -93t72.5 -59.5t102.5 -21zM383 -18q-73 0 -133.5 24.5t-104 72t-67.5 117.5t-24 160t24.5 160t68 118 t104 73t132.5 25q73 0 133.5 -24.5t103.5 -72t67 -117t24 -159.5t-23.5 -160.5t-66.5 -118.5t-103.5 -73t-134.5 -25z" glyph-name="afii10032" horiz-adv-x="765" unicode="О"/><glyph d="M518 633h-347v-633h-92v714h532v-714h-93v633z" glyph-name="afii10033" horiz-adv-x="689" unicode="П"/><glyph d="M317 355q52 0 86 10t53 29t26.5 45.5t7.5 59.5q0 34 -8 60t-27.5 43t-53.5 25.5t-85 8.5h-146v-281h147zM318 714q79 0 130.5 -17t81 -46t41 -67.5t11.5 -81.5q0 -45 -12 -86t-42 -72t-81 -49t-129 -18h-148v-277h-91v714h239z" glyph-name="afii10034" horiz-adv-x="626" unicode="Р"/><glyph d="M664 235q-6 -54 -27 -100.5t-57 -80.5t-87.5 -53t-119.5 -19q-74 0 -133 25t-100 73t-63.5 117.5t-22.5 158.5q0 90 24 160t67 118t101 73t127 25q66 0 114 -17t81.5 -48t54 -74t31.5 -95l-90 -15q-10 40 -24 71t-36.5 53t-54 33.5t-76.5 11.5q-54 0 -95.5 -21.5t-70 -60 t-43 -93t-14.5 -120.5q0 -67 15 -121.5t43.5 -93t70 -59.5t95.5 -21q49 0 83 12.5t56.5 35t35.5 54.5t20 71h95z" glyph-name="afii10035" horiz-adv-x="710" unicode="С"/><glyph d="M18 632v82h565v-82h-236v-632h-93v632h-236z" glyph-name="afii10036" horiz-adv-x="601" unicode="Т"/><glyph d="M41 74q11 -5 31.5 -10.5t45.5 -5.5q42 0 71.5 23t55.5 79l17 38l-254 516h99l200 -426l168 426h96l-230 -543q-21 -50 -42.5 -85.5t-48 -58.5t-59.5 -34t-77 -11q-29 0 -53.5 6t-38.5 13z" glyph-name="afii10037" horiz-adv-x="574" unicode="У"/><glyph d="M368 90q-70 4 -129 23t-101.5 54.5t-66.5 87.5t-24 124q0 70 23 123t65 90t101.5 57.5t131.5 24.5v80h90v-79q72 -4 131 -24.5t101.5 -57t65.5 -89.5t23 -123q0 -72 -24.5 -124.5t-68 -88t-102 -54.5t-126.5 -24v-90h-90v90zM685 382q0 97 -56 153.5t-171 64.5v-436 q112 9 169.5 60.5t57.5 157.5zM142 382q0 -108 58.5 -158.5t167.5 -59.5v436q-118 -8 -172 -64.5t-54 -153.5z" glyph-name="afii10038" horiz-adv-x="827" unicode="Ф"/><glyph d="M30 714h108l180 -271l183 271h99l-231 -341l258 -373h-107l-207 304l-201 -304h-101l252 377z" glyph-name="afii10039" horiz-adv-x="638" unicode="Х"/><glyph d="M79 0v714h92v-633h330v633h92v-633h70v-254h-86v173h-498z" glyph-name="afii10040" horiz-adv-x="685" unicode="Ц"/><glyph d="M468 316q-36 -15 -80 -24t-92 -9q-119 0 -182.5 52.5t-63.5 167.5v211h92v-183q0 -44 8 -76.5t27.5 -53.5t53 -31t83.5 -10q39 0 79.5 7.5t74.5 21.5v325h92v-714h-92v316z" glyph-name="afii10041" horiz-adv-x="639" unicode="Ч"/><glyph d="M528 81h265v633h92v-714h-806v714h92v-633h265v633h92v-633z" glyph-name="afii10042" horiz-adv-x="964" unicode="Ш"/><glyph d="M79 0v714h92v-633h265v633h92v-633h265v633h92v-633h70v-254h-86v173h-790z" glyph-name="afii10043" horiz-adv-x="977" unicode="Щ"/><glyph d="M255 369v-291h147q98 0 136.5 35t38.5 107q0 36 -8.5 63.5t-29.5 46.5t-56 29t-87 10h-141zM5 714h250v-267h147q79 0 130.5 -18.5t82 -49.5t42.5 -71.5t12 -84.5q0 -47 -12.5 -87.5t-44 -70.5t-84 -47.5t-132.5 -17.5h-233v633h-158v81z" glyph-name="afii10044" horiz-adv-x="709" unicode="Ъ"/><glyph d="M316 447q79 0 130.5 -18.5t82 -49.5t42.5 -71.5t12 -84.5q0 -47 -12.5 -87.5t-44 -70.5t-84 -47.5t-132.5 -17.5h-231v714h92v-267h145zM171 78h146q49 0 82 8.5t53.5 26.5t29.5 44.5t9 62.5t-8.5 63.5t-29.5 46.5t-56 29t-87 10h-139v-291zM691 714h92v-714h-92v714z " glyph-name="afii10045" horiz-adv-x="861" unicode="Ы"/><glyph d="M79 714h92v-267h158q79 0 130.5 -18.5t82 -49.5t42.5 -71.5t12 -84.5q0 -47 -13 -87.5t-44 -70.5t-84 -47.5t-132 -17.5h-244v714zM330 78q49 0 82.5 8.5t53.5 26.5t29 44.5t9 62.5t-8.5 63.5t-29.5 46.5t-55.5 29t-86.5 10h-153v-291h159z" glyph-name="afii10046" horiz-adv-x="636" unicode="Ь"/><glyph d="M560 407q-7 115 -60 180t-144 65q-38 0 -70.5 -7t-58.5 -23.5t-45.5 -44t-32.5 -68.5l-88 16q13 47 37.5 85.5t60.5 65.5t84 41.5t110 14.5q67 0 123 -23.5t96 -69t62 -114t22 -158.5q0 -93 -22 -164.5t-63.5 -120.5t-99.5 -74.5t-130 -25.5q-75 0 -127 18.5t-86 50 t-52 73.5t-24 88h95q5 -30 17.5 -57.5t35 -48t56.5 -32.5t84 -12q103 0 158.5 68.5t61.5 196.5h-313v80h313z" glyph-name="afii10047" horiz-adv-x="710" unicode="Э"/><glyph d="M642 -18q-71 0 -128.5 22.5t-99 66t-65 108t-26.5 149.5h-152v-328h-92v714h92v-306h153q6 79 31.5 139.5t67 101.5t97 62t122.5 21q72 0 131 -24.5t100.5 -71.5t64 -116.5t22.5 -160.5t-22 -161.5t-63.5 -118.5t-100.5 -72.5t-132 -24.5zM642 652q-57 0 -99.5 -21 t-70.5 -59t-41.5 -93t-13.5 -122q0 -68 13.5 -122.5t41 -92.5t70 -59t100.5 -21q56 0 98 20.5t69.5 59t41 93t13.5 122.5q0 67 -13.5 122t-41 93t-69.5 59t-98 21z" glyph-name="afii10048" horiz-adv-x="1014" unicode="Ю"/><glyph d="M582 0h-92v296h-114q-57 0 -91 -24.5t-58 -75.5l-93 -196h-104l110 224q18 37 36 58t50 35q-76 24 -109 68t-33 119q0 42 12.5 80t43 67t82 46t129.5 17h231v-714zM490 374v262h-140q-50 0 -83 -7t-52.5 -23t-28 -40.5t-8.5 -58.5q0 -68 39 -100.5t121 -32.5h152z" glyph-name="afii10049" horiz-adv-x="661" unicode="Я"/><glyph d="M389 71q-28 -34 -71 -58.5t-107 -24.5q-39 0 -71.5 9.5t-56 29t-36.5 48.5t-13 68q0 54 22.5 88.5t60 54t84.5 27t97 9.5l89 3v21q0 66 -28 95t-91 29q-62 0 -91 -20.5t-38 -56.5l-79 9q14 71 67 103.5t144 32.5q56 0 94.5 -13.5t62.5 -38.5t34.5 -62t10.5 -83v-341h-84 v71zM387 263l-83 -3q-53 -2 -88 -10t-55.5 -22t-29 -34.5t-8.5 -48.5q0 -39 23.5 -62.5t77.5 -23.5q77 0 120 38t43 104v62z" glyph-name="afii10065" horiz-adv-x="538" unicode="а"/><glyph d="M316 420q-29 0 -57.5 -8.5t-51.5 -28.5q-27 -23 -41 -56t-14 -72q0 -91 37 -145.5t119 -54.5q75 0 112 48.5t37 136.5q0 180 -141 180zM491 656l-93 -17q-79 -14 -122 -34t-67 -44q-57 -56 -68 -172q32 51 79 77t110 26q48 0 88 -16t69.5 -47.5t45.5 -77.5t16 -107 q0 -57 -15.5 -104.5t-46 -82.5t-75.5 -54.5t-105 -19.5q-69 0 -117 24t-78 66.5t-43.5 100.5t-13.5 126q0 63 6.5 111t19.5 85t31 65t41 51q37 38 101.5 64t151.5 40l75 13z" glyph-name="afii10066" horiz-adv-x="599" unicode="б"/><glyph d="M66 523h226q59 0 97.5 -11t61 -30t31.5 -43t9 -50q0 -41 -17.5 -70.5t-58.5 -46.5q46 -15 69.5 -47t23.5 -75q0 -32 -9.5 -59t-33 -47.5t-63 -32t-100.5 -11.5h-236v523zM296 300q57 0 82.5 20t25.5 57q0 38 -26.5 57.5t-86.5 19.5h-138v-154h143zM302 70q65 0 91 20.5 t26 60.5t-28 62.5t-88 22.5h-150v-166h149z" glyph-name="afii10067" horiz-adv-x="545" unicode="в"/><glyph d="M414 523v-75h-261v-448h-87v523h348z" glyph-name="afii10068" horiz-adv-x="425" unicode="г"/><glyph d="M498 523v-449h61v-214h-79v140h-391v-140h-79v214h51q18 17 33 45t27 69.5t21.5 98.5t16.5 132l9 104h330zM236 372q-12 -120 -32.5 -191t-47.5 -107h255v378h-167z" glyph-name="afii10069" horiz-adv-x="574" unicode="д"/><glyph d="M514 145q-13 -75 -66.5 -118t-153.5 -43q-118 0 -181 72.5t-63 201.5q0 67 18 119.5t50.5 88.5t77.5 54.5t98 18.5q60 0 103 -19t70.5 -53t41 -81t13.5 -102v-43h-384q0 -41 10.5 -75t30 -59t48.5 -39t67 -14q65 0 95 24.5t41 66.5h84zM435 306q0 74 -33 119.5t-109 45.5 q-69 0 -108 -42.5t-45 -122.5h295z" glyph-name="afii10070" horiz-adv-x="570" unicode="е"/><glyph d="M427 0h-83v233h-31q-20 0 -33.5 -4t-25 -13t-21.5 -22.5t-22 -31.5l-107 -162h-96l139 205q18 27 35.5 41.5t38.5 22.5q-23 10 -38.5 24t-31.5 50l-31 67q-11 22 -21 33t-35 11q-11 0 -20.5 -1t-12.5 -3l-8 67q6 2 18 4t26 2q26 0 45 -5t33.5 -16t26 -28.5t22.5 -42.5 l25 -55q20 -45 43.5 -62.5t58.5 -17.5h23v227h83v-227h22q37 0 58.5 18t43.5 62l27 55q10 21 20 37t22 27t26.5 17.5t35.5 9.5q7 1 14.5 1h16.5q12 -1 22.5 -3t13.5 -3l-8 -67q-8 4 -33 4q-30 0 -42 -16t-27 -48l-22 -47q-12 -27 -27.5 -44.5t-38.5 -28.5q24 -9 43.5 -29 t43.5 -55l124 -186h-98l-120 180q-18 27 -36 40t-51 13h-30v-233z" glyph-name="afii10072" horiz-adv-x="771" unicode="ж"/><glyph d="M262 539q53 0 91.5 -11t64 -30.5t37.5 -45t12 -55.5q0 -44 -24 -75.5t-61 -45.5q44 -14 71 -45.5t27 -84.5q0 -35 -13 -64t-40.5 -51t-70 -34t-100.5 -12q-100 0 -159 39.5t-65 128.5h84q8 -53 43 -75.5t101 -22.5q73 0 101.5 25.5t28.5 66.5q0 45 -30 68t-85 23h-105v64 h109q49 0 74.5 22.5t25.5 61.5t-29 60.5t-90 21.5q-35 0 -59 -5.5t-39.5 -16.5t-25.5 -27.5t-17 -37.5l-79 14q8 31 23.5 57.5t41.5 45.5t64.5 30t92.5 11z" glyph-name="afii10073" horiz-adv-x="525" unicode="з"/><glyph d="M497 0h-82v394l-267 -394h-82v523h81v-395l267 395h83v-523z" glyph-name="afii10074" horiz-adv-x="563" unicode="и"/><glyph d="M497 0h-82v394l-267 -394h-82v523h81v-395l267 395h83v-523zM205 726q2 -38 25 -59.5t64 -21.5t64 21.5t26 59.5h66q0 -62 -40.5 -100.5t-115.5 -38.5q-77 0 -116 38.5t-39 100.5h66z" glyph-name="afii10075" horiz-adv-x="563" unicode="й"/><glyph d="M66 0v523h86v-227h35q19 0 33.5 4t26.5 13.5t22 24.5t21 38l30 62q11 23 22.5 39t26 26.5t33.5 15t45 4.5q14 0 26.5 -2t18.5 -4l-9 -67q-3 2 -12 3t-20 1q-26 0 -38.5 -11.5t-23.5 -36.5l-29 -63q-12 -28 -27.5 -45.5t-39.5 -28.5q21 -8 37 -23t34 -41l137 -205h-100 l-120 180q-18 27 -36 40t-51 13h-42v-233h-86z" glyph-name="afii10076" horiz-adv-x="508" unicode="к"/><glyph d="M418 452h-173l-22 -180q-9 -75 -25 -127.5t-41 -86t-59.5 -48.5t-80.5 -15h-17v73h10q26 0 46.5 10t37 36t28.5 72t20 117l25 220h338v-523h-87v452z" glyph-name="afii10077" horiz-adv-x="571" unicode="л"/><glyph d="M67 523h106l177 -431l183 431h101v-523h-80v396l-171 -396h-72l-163 392v-392h-81v523z" glyph-name="afii10078" horiz-adv-x="702" unicode="м"/><glyph d="M153 523v-213h275v213h87v-523h-87v236h-275v-236h-87v523h87z" glyph-name="afii10079" horiz-adv-x="581" unicode="н"/><glyph d="M299 -16q-59 0 -105 19.5t-78 55.5t-49 87t-17 115q0 63 18 114.5t51 88t79.5 56t103.5 19.5q58 0 104 -19.5t78.5 -55t49.5 -86t17 -113.5q0 -64 -17.5 -116t-50 -88.5t-79.5 -56.5t-105 -20zM300 56q42 0 72 15.5t49.5 43t28.5 65.5t9 83t-9 82.5t-28.5 64.5t-49.5 42 t-72 15t-71.5 -15t-49 -42t-28.5 -64.5t-9 -82.5t9 -83t28 -65.5t49 -43t72 -15.5z" glyph-name="afii10080" horiz-adv-x="601" unicode="о"/><glyph d="M501 523v-523h-87v448h-261v-448h-87v523h435z" glyph-name="afii10081" horiz-adv-x="568" unicode="п"/><glyph d="M67 523h86v-74q32 44 74.5 67t99.5 23q55 0 96.5 -20t69 -56t41 -86.5t13.5 -111.5q0 -65 -16 -117t-46 -88.5t-72.5 -56t-95.5 -19.5q-44 0 -86.5 17.5t-76.5 62.5v-258h-87v717zM153 247q0 -51 11.5 -87t31.5 -59.5t48 -34t61 -10.5q32 0 59.5 11t47.5 36t31.5 64.5 t11.5 96.5q0 58 -12.5 97t-32.5 62.5t-45.5 33.5t-52.5 10q-34 0 -63 -11t-50.5 -33.5t-33.5 -57t-12 -80.5v-38z" glyph-name="afii10082" horiz-adv-x="597" unicode="р"/><glyph d="M515 175q-13 -89 -68 -140t-155 -51q-59 0 -104.5 19t-76 55t-46 87t-15.5 115q0 63 17 114.5t49 88t78 56.5t104 20q93 0 144 -45.5t65 -125.5l-87 -16q-5 25 -13.5 46t-23.5 36.5t-36.5 24t-51.5 8.5q-41 0 -70 -15.5t-47.5 -43.5t-27 -65.5t-8.5 -80.5q0 -44 8 -81.5 t26 -65t47 -43.5t71 -16q63 0 93.5 32t39.5 87h88z" glyph-name="afii10083" horiz-adv-x="559" unicode="с"/><glyph d="M195 449h-181v74h447v-74h-179v-449h-87v449z" glyph-name="afii10084" horiz-adv-x="475" unicode="т"/><glyph d="M61 -109q13 -5 29 -8.5t31 -3.5q31 0 48.5 17t36.5 62l22 53l-221 512h101l164 -412l149 412h96l-226 -572q-14 -35 -28.5 -62t-32.5 -45.5t-41.5 -28t-54.5 -9.5q-30 0 -50 4t-40 11z" glyph-name="afii10085" horiz-adv-x="524" unicode="у"/><glyph d="M328 1q-147 10 -214.5 76.5t-67.5 179.5q0 54 19.5 99t56.5 79t89 55t117 26v191h85v-191q146 -10 214 -79.5t68 -178.5q0 -56 -20.5 -101.5t-58 -78.5t-89.5 -53t-114 -25v-185h-85v186zM136 262q0 -93 47.5 -138t144.5 -51v370q-87 -6 -139.5 -53t-52.5 -128zM605 257 q0 91 -49.5 135.5t-142.5 51.5v-371q87 7 139.5 52.5t52.5 131.5z" glyph-name="afii10086" horiz-adv-x="742" unicode="ф"/><glyph d="M203 275l-174 248h102l125 -185l129 185h92l-171 -247l190 -276h-101l-144 212l-144 -212h-96z" glyph-name="afii10087" horiz-adv-x="505" unicode="х"/><glyph d="M66 0v523h87v-449h247v449h87v-449h61v-214h-79v140h-403z" glyph-name="afii10088" horiz-adv-x="563" unicode="ц"/><glyph d="M368 211q-27 -9 -61.5 -14.5t-67.5 -5.5q-56 0 -94 14t-61 38t-33.5 57t-10.5 71v152h87v-130q0 -70 30 -99.5t99 -29.5q29 0 58 4.5t54 14.5v240h87v-523h-87v211z" glyph-name="afii10089" horiz-adv-x="522" unicode="ч"/><glyph d="M736 0h-670v523h87v-449h205v449h87v-449h204v449h87v-523z" glyph-name="afii10090" horiz-adv-x="802" unicode="ш"/><glyph d="M736 74h61v-214h-79v140h-652v523h87v-449h205v449h87v-449h204v449h87v-449z" glyph-name="afii10091" horiz-adv-x="813" unicode="щ"/><glyph d="M0 523h205v-192h155q99 0 143 -43.5t44 -120.5q0 -78 -50 -122.5t-147 -44.5h-232v451h-118v72zM205 72h147q54 0 79 24.5t25 69.5q0 46 -23.5 70t-85.5 24h-142v-188z" glyph-name="afii10092" horiz-adv-x="577" unicode="ъ"/><glyph d="M153 523v-192h156q98 0 142 -44.5t44 -118.5q0 -75 -48.5 -121.5t-151.5 -46.5h-229v523h87zM565 523h87v-523h-87v523zM153 72h146q55 0 80 24.5t25 69.5q0 46 -23.5 70t-85.5 24h-142v-188z" glyph-name="afii10093" horiz-adv-x="718" unicode="ы"/><glyph d="M153 523v-192h167q98 0 142 -44.5t44 -118.5q0 -75 -48.5 -121.5t-151.5 -46.5h-240v523h87zM153 72h157q55 0 80 24.5t25 69.5q0 46 -23.5 70t-85.5 24h-153v-188z" glyph-name="afii10094" horiz-adv-x="536" unicode="ь"/><glyph d="M194 299h225q-6 80 -42.5 124.5t-102.5 44.5q-58 0 -91 -23t-48 -73l-81 14q18 67 72.5 110t150.5 43q56 0 99.5 -19.5t73 -56t45 -87.5t15.5 -114q0 -61 -16 -112t-46.5 -88t-75.5 -57.5t-102 -20.5q-104 0 -158.5 48t-62.5 125h84q7 -45 38.5 -73.5t103.5 -28.5 q36 0 62.5 13t44.5 36.5t27 56t11 71.5h-226v67z" glyph-name="afii10095" horiz-adv-x="560" unicode="э"/><glyph d="M153 523v-223h114q10 111 72.5 175t167.5 64q57 0 101 -19.5t75 -55t47 -86.5t16 -114q0 -64 -16.5 -116t-47 -88.5t-75.5 -56t-102 -19.5q-111 0 -172 66t-68 182h-112v-232h-87v523h87zM506 56q40 0 68 15.5t46 43t26 65.5t8 83t-8 82.5t-26 64.5t-46 42t-68 15 t-68.5 -15t-47 -42.5t-27 -65t-8.5 -82.5t8.5 -83t26.5 -65t46.5 -42.5t69.5 -15.5z" glyph-name="afii10096" horiz-adv-x="797" unicode="ю"/><glyph d="M23 0l97 168q25 43 55 58q-50 11 -79 48t-29 95q0 33 10 61t33.5 49t62.5 32.5t97 11.5h208v-523h-87v209h-75q-24 0 -40.5 -3t-28.5 -10t-22 -19t-20 -30l-84 -147h-98zM391 281v171h-120q-115 0 -115 -80q0 -91 107 -91h128z" glyph-name="afii10097" horiz-adv-x="545" unicode="я"/><glyph d="M514 145q-13 -75 -66.5 -118t-153.5 -43q-118 0 -181 72.5t-63 201.5q0 67 18 119.5t50.5 88.5t77.5 54.5t98 18.5q60 0 103 -19t70.5 -53t41 -81t13.5 -102v-43h-384q0 -41 10.5 -75t30 -59t48.5 -39t67 -14q65 0 95 24.5t41 66.5h84zM435 306q0 74 -33 119.5t-109 45.5 q-69 0 -108 -42.5t-45 -122.5h295zM152 733h107l114 -142h-86z" glyph-name="uni0450" horiz-adv-x="570" unicode="ѐ"/><glyph d="M514 145q-13 -75 -66.5 -118t-153.5 -43q-118 0 -181 72.5t-63 201.5q0 67 18 119.5t50.5 88.5t77.5 54.5t98 18.5q60 0 103 -19t70.5 -53t41 -81t13.5 -102v-43h-384q0 -41 10.5 -75t30 -59t48.5 -39t67 -14q65 0 95 24.5t41 66.5h84zM435 306q0 74 -33 119.5t-109 45.5 q-69 0 -108 -42.5t-45 -122.5h295zM157 714h88v-99h-88v99zM331 714h89v-99h-89v99z" glyph-name="afii10071" horiz-adv-x="570" unicode="ё"/><glyph d="M92 0v575h-92v65h92v74h87v-74h200v-65h-200v-163q38 49 83 71t96 22q89 0 131.5 -47.5t42.5 -141.5v-322q0 -39 -6 -72t-22 -57t-43 -37.5t-69 -13.5q-31 0 -53 4.5t-42 11.5l15 69q14 -5 30 -8t37 -3q35 0 50 20.5t15 62.5v328q0 71 -25 101t-82 30q-27 0 -54 -9.5 t-49 -28.5q-25 -22 -40 -47t-15 -67v-278h-87z" glyph-name="afii10099" horiz-adv-x="596" unicode="ђ"/><glyph d="M414 523v-75h-261v-448h-87v523h348zM270 733h107l-135 -142h-86z" glyph-name="afii10100" horiz-adv-x="425" unicode="ѓ"/><glyph d="M366 233h-226q1 -39 11 -71.5t28.5 -56t47.5 -36.5t70 -13q54 0 89 24t45 76h83q-6 -43 -25.5 -75.5t-49 -54t-67 -32t-79.5 -10.5q-60 0 -105.5 19.5t-76 54.5t-46 85t-15.5 111q0 64 17 116.5t49.5 90t78.5 58t104 20.5q175 0 208 -153l-83 -14q-11 44 -39.5 69.5 t-88.5 25.5q-37 0 -64.5 -12.5t-47 -35t-30.5 -53.5t-14 -67h226v-66z" glyph-name="afii10101" horiz-adv-x="560" unicode="є"/><glyph d="M123 151q9 -54 45.5 -75.5t99.5 -21.5q66 0 93.5 22.5t27.5 60.5q0 16 -3.5 29.5t-13.5 24.5t-28 18.5t-47 12.5l-66 10q-87 13 -133 47.5t-46 105.5q0 37 15.5 65.5t43 48t65 30t81.5 10.5q56 0 93.5 -11t61.5 -30t37 -45t20 -55l-79 -13q-7 21 -16 37t-24 26.5 t-36.5 16t-53.5 5.5q-36 0 -60 -6.5t-38.5 -17.5t-20.5 -25.5t-6 -29.5q0 -17 4 -29.5t15 -22.5t30 -17t49 -12l75 -12q91 -15 130.5 -52t39.5 -109q0 -66 -52 -109.5t-156 -43.5q-47 0 -87.5 9t-71.5 28.5t-50 51.5t-22 78h84z" glyph-name="afii10102" horiz-adv-x="522" unicode="ѕ"/><glyph d="M159 714v-101h-93v101h93zM156 523v-523h-87v523h87z" glyph-name="afii10103" horiz-adv-x="225" unicode="і"/><glyph d="M69 523h87v-523h-87v523zM-22 714h88v-99h-88v99zM152 714h89v-99h-89v99z" glyph-name="afii10104" horiz-adv-x="225" unicode="ї"/><glyph d="M66 714h93v-101h-93v101zM-66 -101q14 -5 30.5 -7.5t37.5 -2.5q37 0 52 20t15 62v552h87v-529q0 -39 -6 -72t-21.5 -57t-43 -37.5t-69.5 -13.5q-31 0 -54 4.5t-43 11.5z" glyph-name="afii10105" horiz-adv-x="226" unicode="ј"/><glyph d="M483 331h147q98 0 142 -44.5t44 -118.5q0 -75 -48.5 -121.5t-151.5 -46.5h-220v450h-151l-22 -178q-9 -75 -25.5 -128t-41 -86t-59 -48t-80.5 -15h-17v73h10q26 0 46.5 10t37 36t28.5 72t20 117l25 220h316v-192zM483 72h137q55 0 80 24.5t25 69.5q0 46 -23.5 70 t-85.5 24h-133v-188z" glyph-name="afii10106" horiz-adv-x="846" unicode="љ"/><glyph d="M487 523v-202h147q49 0 84.5 -11.5t58 -32.5t33 -50t10.5 -64q0 -36 -12 -65.5t-36.5 -51.5t-62.5 -34t-89 -12h-220v249h-247v-249h-87v523h87v-201h247v201h87zM487 72h137q55 0 80 24t25 65q0 42 -23.5 65.5t-85.5 23.5h-133v-178z" glyph-name="afii10107" horiz-adv-x="850" unicode="њ"/><glyph d="M97 575h-97v65h97v74h87v-74h213v-65h-213v-163q38 49 83.5 71t96.5 22q88 0 130.5 -48t42.5 -141v-316h-88v299q0 72 -25.5 101.5t-79.5 29.5q-29 0 -57.5 -10t-51.5 -32q-25 -22 -38 -46.5t-13 -63.5v-278h-87v575z" glyph-name="afii10108" horiz-adv-x="599" unicode="ћ"/><glyph d="M66 0v523h86v-227h35q19 0 33.5 4t26.5 13.5t22 24.5t21 38l30 62q11 23 22.5 39t26 26.5t33.5 15t45 4.5q14 0 26.5 -2t18.5 -4l-9 -67q-3 2 -12 3t-20 1q-26 0 -38.5 -11.5t-23.5 -36.5l-29 -63q-12 -28 -27.5 -45.5t-39.5 -28.5q21 -8 37 -23t34 -41l137 -205h-100 l-120 180q-18 27 -36 40t-51 13h-42v-233h-86zM306 733h107l-135 -142h-86z" glyph-name="afii10109" horiz-adv-x="508" unicode="ќ"/><glyph d="M497 0h-82v394l-267 -394h-82v523h81v-395l267 395h83v-523zM143 733h107l114 -142h-86z" glyph-name="uni045D" horiz-adv-x="563" unicode="ѝ"/><glyph d="M61 -109q13 -5 29 -8.5t31 -3.5q31 0 48.5 17t36.5 62l22 53l-221 512h101l164 -412l149 412h96l-226 -572q-14 -35 -28.5 -62t-32.5 -45.5t-41.5 -28t-54.5 -9.5q-30 0 -50 4t-40 11zM168 726q2 -38 25 -59.5t64 -21.5t64 21.5t26 59.5h66q0 -62 -40.5 -100.5 t-115.5 -38.5q-77 0 -116 38.5t-39 100.5h66z" glyph-name="afii10110" horiz-adv-x="524" unicode="ў"/><glyph d="M324 0v-140h-79v140h-179v523h87v-448h261v448h87v-523h-177z" glyph-name="afii10193" horiz-adv-x="568" unicode="џ"/><glyph d="M185 650v92h92v-92h234v-75h-234v-128h151q79 0 130.5 -17.5t81.5 -47.5t42 -71t12 -88t-12.5 -87.5t-44 -70.5t-84 -47.5t-131.5 -17.5h-237v575h-170v75h170zM277 369v-291h151q49 0 82 8.5t53.5 26.5t29.5 44.5t9 62.5t-8.5 64t-29.5 47t-55.5 28.5t-86.5 9.5h-145z " glyph-name="uni0462" horiz-adv-x="735" unicode="Ѣ"/><glyph d="M128 520v212h87v-212h213v-68h-213v-121h166q98 0 142 -44.5t44 -118.5q0 -75 -48.5 -121.5t-151.5 -46.5h-239v452h-123v68h123zM215 72h156q55 0 80 24.5t25 69.5q0 46 -23.5 70t-85.5 24h-152v-188z" glyph-name="uni0463" horiz-adv-x="601" unicode="ѣ"/><glyph d="M383 -18q-73 0 -133.5 24.5t-104 72t-67.5 117.5t-24 160t24.5 160t68 118t104 73t132.5 25q73 0 133.5 -24.5t103.5 -72t67 -117t24 -159.5t-23.5 -160.5t-66.5 -118.5t-103.5 -73t-134.5 -25zM383 653q-53 0 -94.5 -17.5t-70.5 -50t-46 -78t-22 -101.5q23 15 52 24.5 t61 9.5q37 0 68.5 -13t61 -28.5t59 -28.5t62.5 -13q54 0 101 28q-3 61 -19.5 110.5t-45.5 84.5t-71 54t-96 19zM383 61q104 0 162.5 67.5t68.5 181.5q-23 -14 -49.5 -22t-56.5 -8q-38 0 -70 13t-61.5 29t-58.5 29t-61 13t-58.5 -9t-49.5 -25q3 -61 18.5 -110.5t45 -85 t72 -54.5t98.5 -19z" glyph-name="uni0472" horiz-adv-x="765" unicode="Ѳ"/><glyph d="M299 -16q-59 0 -105 19.5t-78 55.5t-49 87t-17 115q0 63 18 114.5t51 88t79.5 56t103.5 19.5q58 0 104 -19.5t78.5 -55t49.5 -86t17 -113.5q0 -64 -17.5 -116t-50 -88.5t-79.5 -56.5t-105 -20zM300 468q-75 0 -113.5 -44.5t-46.5 -116.5q16 8 34.5 13t38.5 5 q28 0 50.5 -9t43 -20.5t40.5 -20.5t43 -9q21 0 38.5 4t34.5 14q-2 40 -12.5 74t-30.5 58.5t-50 38t-70 13.5zM300 55q75 0 114 45t47 118q-35 -19 -75 -19q-26 0 -48 9.5t-42.5 20.5t-41 20.5t-44.5 9.5q-21 0 -38 -4.5t-34 -13.5q2 -41 12.5 -75t30.5 -59t49.5 -38.5 t69.5 -13.5z" glyph-name="uni0473" horiz-adv-x="601" unicode="ѳ"/><glyph d="M117 714l217 -595l143 414q18 52 36 89t39.5 60t49.5 34t67 11q35 0 62.5 -9.5t48.5 -25.5l-33 -72q-15 11 -32 18t-40 7q-31 0 -53 -17t-40 -67l-202 -561h-93l-274 714h104z" glyph-name="uni0474" horiz-adv-x="758" unicode="Ѵ"/><glyph d="M107 523l153 -426l116 332q20 58 56 82t84 24q32 0 53 -8.5t37 -20.5l-30 -65q-25 17 -54 17q-27 0 -42.5 -14t-29.5 -52l-144 -392h-94l-206 523h101z" glyph-name="uni0475" unicode="ѵ"/><glyph d="M682 81q0 -78 -28.5 -146t-100.5 -120l-53 58q31 23 55 54.5t35 72.5h-69v564l-352 -564h-90v714h90v-565l351 565h90v-633h72zM255 909q2 -38 25 -59.5t64 -21.5t64 21.5t26 59.5h66q0 -62 -40.5 -100.5t-115.5 -38.5q-77 0 -116 38.5t-39 100.5h66z" glyph-name="uni048A" horiz-adv-x="704" unicode="Ҋ"/><glyph d="M497 74h57q0 -76 -24.5 -127.5t-84.5 -93.5l-45 51q53 41 69 96h-54v394l-267 -394h-82v523h81v-395l267 395h83v-449zM205 725q2 -38 25 -59.5t64 -21.5t64 21.5t26 59.5h66q0 -62 -40.5 -100.5t-115.5 -38.5q-77 0 -116 38.5t-39 100.5h66z" glyph-name="uni048B" horiz-adv-x="569" unicode="ҋ"/><glyph d="M96 550h-86v75h86v89h92v-89h181v-75h-181v-110h156q76 0 126.5 -17.5t80.5 -47.5t42 -70t12 -85t-12.5 -85t-43 -70t-82.5 -47.5t-131 -17.5h-240v550zM188 362v-284h155q93 0 131.5 35t38.5 104q0 34 -8.5 61t-29 45.5t-56 28.5t-89.5 10h-142z" glyph-name="uni048C" horiz-adv-x="645" unicode="Ҍ"/><glyph d="M194 403v-76h166q99 0 142.5 -42.5t43.5 -118.5q0 -77 -48.5 -121.5t-151.5 -44.5h-239v403h-101v68h101v64h87v-64h186v-68h-186zM194 72h156q55 0 80 23t25 69q0 47 -23.5 69.5t-85.5 22.5h-152v-184z" glyph-name="uni048D" horiz-adv-x="576" unicode="ҍ"/><glyph d="M361 496l76 -121q37 17 50 49t13 75q0 34 -8 60t-27.5 43t-53.5 25.5t-85 8.5h-156v-281h137q30 0 56 3l-62 100zM328 714q80 0 131.5 -16.5t81 -45t41 -66.5t11.5 -82q0 -31 -5.5 -60.5t-18.5 -55.5t-34.5 -47t-52.5 -36l53 -83l-61 -38l-64 100q-22 -5 -47 -6t-51 -1 h-142v-277h-91v714h249z" glyph-name="uni048E" horiz-adv-x="637" unicode="Ҏ"/><glyph d="M67 523h86v-74q32 44 74.5 67t99.5 23q55 0 96.5 -20t69 -56t41 -86.5t13.5 -111.5q0 -82 -25 -142.5t-70 -95.5l58 -91l-57 -35l-60 95q-35 -12 -76 -12q-44 0 -86.5 17.5t-76.5 62.5v-258h-87v717zM153 247q0 -51 11.5 -87t31.5 -59.5t48 -34t61 -10.5q23 0 46 6 l-71 113l56 35l71 -113q23 25 35.5 66t12.5 101q0 58 -12.5 97t-32.5 62.5t-45.5 33.5t-52.5 10q-34 0 -63 -11t-50.5 -33.5t-33.5 -57t-12 -80.5v-38z" glyph-name="uni048F" horiz-adv-x="597" unicode="ҏ"/><glyph d="M79 714h352v99h83v-180h-343v-633h-92v714z" glyph-name="afii10050" horiz-adv-x="524" unicode="Ґ"/><glyph d="M414 448h-261v-448h-87v523h271v83h77v-158z" glyph-name="afii10098" horiz-adv-x="425" unicode="ґ"/><glyph d="M103 324h-93v78h93v312h435v-81h-343v-231h208v-78h-208v-324h-92v324z" glyph-name="uni0492" horiz-adv-x="548" unicode="Ғ"/><glyph d="M431 523v-75h-261v-156h161v-69h-161v-223h-87v223h-71v69h71v231h348z" glyph-name="uni0493" horiz-adv-x="442" unicode="ғ"/><glyph d="M171 411q33 13 75.5 21.5t87.5 8.5q77 0 128.5 -24t83 -65t44.5 -95.5t13 -115.5q0 -63 -16.5 -118t-52.5 -95.5t-92.5 -64t-135.5 -23.5h-41v79h50q97 0 145.5 56.5t48.5 164.5q0 106 -43 164.5t-146 58.5q-38 0 -76 -6.5t-73 -20.5v-336h-92v714h421v-81h-329v-222z " glyph-name="uni0494" horiz-adv-x="643" unicode="Ҕ"/><glyph d="M66 0v523h363v-75h-276v-162q29 11 59.5 17t68.5 6q59 0 101 -18t69 -51t39.5 -79t12.5 -102q0 -53 -14.5 -100.5t-45 -83t-79 -56.5t-117.5 -21h-34v72h37q78 0 120 46.5t42 140.5t-33 136.5t-112 42.5q-32 0 -59.5 -5.5t-54.5 -16.5v-214h-87z" glyph-name="uni0495" horiz-adv-x="533" unicode="ҕ"/><glyph d="M302 377q-29 14 -55.5 41t-43.5 69l-33 80q-15 36 -33.5 52t-47.5 16q-8 0 -16 -0.5t-15 -1.5q-8 -1 -15 -2l-12 76q10 1 21 3q9 2 20 3t20 1q28 0 49 -4t38.5 -15.5t32 -32t28.5 -53.5l38 -88q24 -57 61 -85.5t91 -28.5h25v307h92v-307h28q54 0 88.5 29t60.5 85l41 88 q15 32 32 52.5t36.5 32t41.5 16t48 4.5q9 0 17.5 -1t16.5 -3q9 -2 17 -3l-10 -76l-12 2q-5 1 -12.5 1.5t-15.5 0.5q-34 0 -53.5 -16t-35.5 -52l-36 -80q-36 -81 -96 -110q26 -8 47 -28.5t48 -59.5l141 -208h62v-254h-84v173h-32l-164 245q-18 27 -33 43t-31.5 25t-36.5 12 t-47 3h-26v-328h-92v328h-29q-27 0 -46.5 -3t-36 -12t-31 -25t-32.5 -43l-162 -245h-109l194 289q28 42 49 61t50 27z" glyph-name="uni0496" horiz-adv-x="1023" unicode="Җ"/><glyph d="M427 0h-83v233h-31q-20 0 -33.5 -4t-25 -13t-21.5 -22.5t-22 -31.5l-107 -162h-96l139 205q18 27 35.5 41.5t38.5 22.5q-23 8 -39.5 26.5t-30.5 47.5l-31 67q-11 22 -21 33t-35 11q-11 0 -20.5 -1t-12.5 -3l-8 67q6 2 18 4t26 2q26 0 45 -5t33.5 -16t26 -28.5t22.5 -42.5 l25 -55q20 -45 43.5 -62.5t58.5 -17.5h23v227h83v-227h22q37 0 58.5 18t43.5 62l27 55q10 21 20 37t22 27t26.5 17.5t35.5 9.5q7 1 14.5 1h16.5q12 -1 22.5 -3t13.5 -3l-8 -67q-8 4 -33 4q-30 0 -42 -16t-27 -48l-22 -47q-12 -27 -27.5 -44.5t-38.5 -28.5q24 -9 43.5 -29 t43.5 -55l75 -112h54v-214h-79v140h-24l-120 180q-18 27 -36 40t-51 13h-30v-233z" glyph-name="uni0497" horiz-adv-x="782" unicode="җ"/><glyph d="M228 -159q20 -3 34.5 -4t28.5 -1q31 0 44 9t13 26t-14.5 25t-56.5 8h-21l28 79q-66 3 -112 21t-75 46.5t-42.5 65t-14.5 75.5h88q6 -40 20 -65.5t36.5 -40.5t53 -20.5t70.5 -5.5q87 0 128.5 35.5t41.5 104.5q0 70 -43 101.5t-120 31.5h-99v78h102q66 0 105.5 32t39.5 96 q0 57 -39 87t-114 30q-38 0 -65.5 -6t-48.5 -19.5t-35.5 -36.5t-25.5 -56l-85 13q7 38 26.5 71t51.5 58t78 39t108 14q61 0 105.5 -14.5t74 -40t44 -59t14.5 -70.5q0 -55 -23.5 -99t-76.5 -70q60 -23 88 -69.5t28 -109.5q0 -44 -14 -81.5t-41.5 -66t-70 -46.5t-99.5 -22 l-14 -38q28 -3 46 -11t29 -19t15.5 -24t4.5 -28q0 -47 -35.5 -65.5t-96.5 -18.5q-15 0 -30 1t-34 4v56z" glyph-name="uni0498" horiz-adv-x="617" unicode="Ҙ"/><glyph d="M173 -148q19 -2 32.5 -3t27.5 -1q30 0 43 8t13 23q0 17 -14.5 24.5t-54.5 7.5h-21l27 75q-88 6 -138.5 45.5t-55.5 121.5h84q8 -53 43 -75.5t101 -22.5q73 0 101.5 25.5t28.5 66.5q0 45 -30 68t-85 23h-105v64h109q49 0 74.5 22.5t25.5 61.5t-29 60.5t-90 21.5 q-35 0 -59 -5.5t-39.5 -16.5t-25.5 -27.5t-17 -37.5l-79 14q8 31 23.5 57.5t41.5 45.5t64.5 30t92.5 11q53 0 91.5 -11t64 -30.5t37.5 -45t12 -55.5q0 -44 -24 -75.5t-61 -45.5q44 -14 71 -45.5t27 -84.5q0 -65 -47.5 -110t-149.5 -50l-12 -34q27 -3 44 -10.5t27.5 -18 t14.5 -23.5t4 -27q0 -45 -34 -63t-93 -18q-14 0 -29 1t-32 4v55z" glyph-name="uni0499" horiz-adv-x="525" unicode="ҙ"/><glyph d="M171 408h48q48 0 82.5 26t60.5 82l45 95q28 59 63.5 81t85.5 22q20 0 36 -2.5t23 -4.5l-10 -76q-6 1 -11 2t-11 1.5t-13 0.5q-15 0 -27.5 -2.5t-23.5 -10t-22 -21.5t-21 -37l-41 -87q-36 -74 -92 -100q26 -8 45 -25.5t42 -51.5l149 -219h63v-254h-84v173h-33l-167 248 q-16 24 -29 39.5t-27 24.5t-30.5 12.5t-39.5 3.5h-61v-328h-92v714h92v-306z" glyph-name="uni049A" horiz-adv-x="664" unicode="Қ"/><glyph d="M66 0v523h86v-227h35q19 0 33.5 4t26.5 13.5t22 24.5t21 38l30 62q11 23 22.5 39t26 26.5t33.5 15t45 4.5q14 0 26.5 -2t18.5 -4l-9 -67q-3 2 -12 3t-20 1q-26 0 -38.5 -11.5t-23.5 -36.5l-29 -63q-12 -28 -27.5 -45.5t-39.5 -28.5q21 -8 37 -23t34 -41l88 -131h54v-214 h-79v140h-26l-120 180q-18 27 -36 40t-51 13h-42v-233h-86z" glyph-name="uni049B" horiz-adv-x="522" unicode="қ"/><glyph d="M171 407h64v136h67v-126q50 23 86 99l45 95q28 59 63.5 81t85.5 22q20 0 36 -2.5t23 -4.5l-10 -76q-6 1 -11 2t-11 1.5t-13 0.5q-15 0 -27.5 -2.5t-23.5 -10t-22 -21.5t-21 -37l-41 -87q-36 -74 -92 -100q26 -8 45 -25.5t42 -51.5l204 -300h-109l-167 248 q-23 35 -40.5 52.5t-41.5 23.5v-122h-67v127h-64v-329h-92v714h92v-307z" glyph-name="uni049C" horiz-adv-x="666" unicode="Ҝ"/><glyph d="M203 234h-51v-234h-86v523h86v-228h51v109h57v-101q17 8 31 25.5t28 47.5l30 62q11 23 22.5 39t26 26.5t33.5 15t45 4.5q14 0 26.5 -2t18.5 -4l-9 -67q-3 2 -12 3t-20 1q-26 0 -38.5 -11.5t-23.5 -36.5l-29 -63q-12 -28 -27.5 -45.5t-39.5 -28.5q21 -8 37 -23t34 -41 l137 -205h-100l-120 180q-12 18 -23.5 30t-26.5 18v-100h-57v106z" glyph-name="uni049D" horiz-adv-x="537" unicode="ҝ"/><glyph d="M190 605h106v-77h-106v-120h50q48 0 82.5 26t60.5 82l45 95q28 59 63.5 81t85.5 22q20 0 36 -2.5t23 -4.5l-10 -76q-6 1 -11 2t-11 1.5t-13 0.5q-15 0 -27.5 -2.5t-23.5 -10t-22 -21.5t-21 -37l-41 -87q-36 -74 -92 -100q26 -8 45 -25.5t42 -51.5l204 -300h-109l-167 248 q-16 24 -29 39.5t-27 24.5t-30.5 12.5t-39.5 3.5h-63v-328h-92v528h-82v77h82v109h92v-109z" glyph-name="uni049E" horiz-adv-x="661" unicode="Ҟ"/><glyph d="M20 450h73v73h86v-73h88v-66h-88v-88h37q19 0 33.5 4t26.5 13.5t22 24.5t21 38l30 62q11 23 22.5 39t26 26.5t33.5 15t45 4.5q14 0 26.5 -2t18.5 -4l-9 -67q-3 2 -12 3t-20 1q-26 0 -38.5 -11.5t-23.5 -36.5l-29 -63q-12 -28 -27.5 -45.5t-39.5 -28.5q21 -8 37 -23 t34 -41l137 -205h-100l-120 180q-18 27 -36 40t-51 13h-44v-233h-86v384h-73v66z" glyph-name="uni049F" horiz-adv-x="537" unicode="ҟ"/><glyph d="M252 408h48q48 0 82.5 26t60.5 82l45 95q28 59 63.5 81t85.5 22q20 0 36 -2.5t23 -4.5l-10 -76q-6 1 -11 2t-11 1.5t-13 0.5q-15 0 -27.5 -2.5t-23.5 -10t-22 -21.5t-21 -37l-41 -87q-36 -74 -92 -100q26 -8 45 -25.5t42 -51.5l204 -300h-109l-167 248q-16 24 -29 39.5 t-27 24.5t-30.5 12.5t-39.5 3.5h-61v-328h-92v633h-145v81h237v-306z" glyph-name="uni04A0" horiz-adv-x="721" unicode="Ҡ"/><glyph d="M207 523v-227h35q19 0 33.5 4t26.5 13.5t22 24.5t21 38l30 62q11 23 22.5 39t26 26.5t33.5 15t45 4.5q14 0 26.5 -2t18.5 -4l-9 -67q-3 2 -12 3t-20 1q-26 0 -38.5 -11.5t-23.5 -36.5l-29 -63q-12 -28 -27.5 -45.5t-39.5 -28.5q21 -8 37 -23t34 -41l137 -205h-100 l-120 180q-18 27 -36 40t-51 13h-42v-233h-86v450h-115v73h201z" glyph-name="uni04A1" horiz-adv-x="563" unicode="ҡ"/><glyph d="M694 81v-254h-84v173h-78v326h-361v-326h-92v714h92v-302h361v302h92v-633h70z" glyph-name="uni04A2" horiz-adv-x="715" unicode="Ң"/><glyph d="M153 523v-213h275v213h87v-449h61v-214h-79v140h-69v236h-275v-236h-87v523h87z" glyph-name="uni04A3" horiz-adv-x="591" unicode="ң"/><glyph d="M171 714v-302h361v302h236v-81h-144v-633h-92v326h-361v-326h-92v714h92z" glyph-name="uni04A4" horiz-adv-x="782" unicode="Ҥ"/><glyph d="M515 0h-87v236h-275v-236h-87v523h87v-213h275v213h201v-73h-114v-450z" glyph-name="uni04A5" horiz-adv-x="635" unicode="ҥ"/><glyph d="M596 0h-93v633h-332v-633h-92v714h517v-303q34 13 76 21.5t87 8.5q77 0 128.5 -24t83 -65t44.5 -95.5t13 -115.5q0 -63 -16.5 -118t-52.5 -95.5t-92.5 -64t-135.5 -23.5h-41v79h51q97 0 145 56.5t48 164.5q0 106 -43 164.5t-146 58.5q-38 0 -76 -6.5t-73 -20.5v-336z" glyph-name="uni04A6" horiz-adv-x="1063" unicode="Ҧ"/><glyph d="M493 0h-87v448h-253v-448h-87v523h427v-237q28 11 58.5 17t68.5 6q59 0 101 -18t69 -51t39.5 -79t12.5 -102q0 -53 -14.5 -100.5t-45 -83t-79 -56.5t-117.5 -21h-34v72h37q78 0 120 46.5t42 140.5t-33 136.5t-112 42.5q-32 0 -59 -5.5t-54 -16.5v-214z" glyph-name="uni04A7" horiz-adv-x="870" unicode="ҧ"/><glyph d="M801 -2q-32 -11 -61.5 -13.5t-55.5 -2.5q-37 0 -73 7.5t-63 20.5q-28 -12 -68 -20t-79 -8q-85 0 -150 26.5t-108.5 76t-66 119t-22.5 155.5q0 93 26 162.5t70 116.5t103.5 70.5t125.5 23.5q44 0 78 -7.5t64 -21.5l-26 -73q-20 9 -51.5 16.5t-65.5 7.5q-50 0 -92 -19 t-73 -55.5t-48 -90t-17 -122.5q0 -81 18.5 -139t52.5 -96t80 -56t102 -18q20 0 39.5 2t30.5 5q-52 45 -80 109t-28 145q0 55 13.5 101.5t39.5 80t65 52.5t89 19q93 0 145 -63.5t52 -179.5q0 -82 -32.5 -151.5t-97.5 -115.5q14 -4 30.5 -5t34.5 -1q23 0 45 3.5t41 9.5z M449 320q0 -79 28 -140t79 -93q30 15 53 40t38.5 56t24 67.5t8.5 74.5q0 91 -28.5 133t-83.5 42q-57 0 -88 -47.5t-31 -132.5z" glyph-name="uni04A8" horiz-adv-x="827" unicode="Ҩ"/><glyph d="M136 263q0 -111 47.5 -162.5t124.5 -51.5h21t20 2q-73 67 -73 179q0 40 10.5 73.5t30 57.5t48 37t64.5 13q65 0 106 -46.5t41 -128.5q0 -62 -24.5 -110.5t-68.5 -77.5q5 -2 16 -2h19q29 0 49.5 6t26.5 8l16 -58q-9 -5 -33.5 -12.5t-66.5 -7.5q-26 0 -54.5 5.5t-47.5 14.5 q-24 -9 -51.5 -13.5t-56.5 -4.5q-60 0 -106.5 19.5t-78.5 55t-48.5 86.5t-16.5 114q0 65 17.5 117t50 88t78.5 55.5t102 19.5q55 0 99 -20l-23 -66q-19 9 -39.5 12.5t-40.5 3.5q-34 0 -63 -12.5t-50 -38t-33 -64t-12 -91.5zM350 228q0 -49 18.5 -91.5t50.5 -64.5 q33 20 58.5 58t25.5 101q0 56 -18 87t-57 31q-41 0 -59.5 -33.5t-18.5 -87.5z" glyph-name="uni04A9" horiz-adv-x="632" unicode="ҩ"/><glyph d="M276 -159q20 -3 34.5 -4t28.5 -1q31 0 44 9t13 26t-14.5 25t-56.5 8h-21l29 80q-65 6 -116.5 34t-87.5 75.5t-55.5 113.5t-19.5 149q0 90 24 160t67 118t101.5 73t126.5 25q66 0 114 -17t81.5 -48t54 -74t31.5 -95l-90 -15q-9 39 -23.5 70.5t-37 53.5t-54 33.5 t-76.5 11.5q-53 0 -94.5 -21.5t-70 -60t-43.5 -93t-15 -120.5t15 -120.5t43.5 -93.5t70 -60t95.5 -21q49 0 83.5 12.5t57 35.5t35.5 55t19 70h95q-6 -53 -25.5 -97.5t-53.5 -78t-82 -53.5t-112 -23l-14 -37q28 -3 46 -11t29 -19t15.5 -24t4.5 -28q0 -47 -35.5 -65.5 t-96.5 -18.5q-15 0 -30 1t-34 4v56z" glyph-name="uni04AA" horiz-adv-x="710" unicode="Ҫ"/><glyph d="M191 -148q19 -2 32.5 -3t27.5 -1q30 0 43 8t13 23q0 17 -14.5 24.5t-54.5 7.5h-21l27 77q-95 14 -144.5 86t-49.5 186q0 63 17 114.5t49 88t78 56.5t104 20q93 0 144 -45.5t65 -125.5l-87 -16q-5 25 -13.5 46t-23.5 36.5t-36.5 24t-51.5 8.5q-41 0 -70 -15.5t-47.5 -43.5 t-27 -65.5t-8.5 -80.5q0 -44 8 -81.5t26 -65t47 -43.5t71 -16q63 0 93.5 32t39.5 87h88q-13 -87 -66 -138t-149 -53l-11 -32q27 -3 44 -10.5t27.5 -18t14.5 -23.5t4 -27q0 -45 -34 -63t-93 -18q-14 0 -29 1t-32 4v55z" glyph-name="uni04AB" horiz-adv-x="559" unicode="ҫ"/><glyph d="M254 0v632h-236v82h565v-82h-236v-551h70v-254h-84v173h-79z" glyph-name="uni04AC" horiz-adv-x="601" unicode="Ҭ"/><glyph d="M195 0v449h-181v74h447v-74h-179v-375h61v-214h-79v140h-69z" glyph-name="uni04AD" horiz-adv-x="475" unicode="ҭ"/><glyph d="M262 303l-249 411h106l189 -330l194 330h97l-244 -411v-303h-93v303z" glyph-name="uni04AE" horiz-adv-x="613" unicode="Ү"/><glyph d="M107 523l162 -409l151 409h97l-207 -504v-213h-87v214l-217 503h101z" glyph-name="uni04AF" horiz-adv-x="523" unicode="ү"/><glyph d="M505 238h-150v-238h-93v238h-151v77h143l-241 399h106l189 -330l194 330h97l-237 -399h143v-77z" glyph-name="uni04B0" horiz-adv-x="613" unicode="Ұ"/><glyph d="M98 72h102l-194 451h101l162 -410l151 410h97l-186 -451h103v-72h-124v-194h-87v194h-125v72z" glyph-name="uni04B1" horiz-adv-x="523" unicode="ұ"/><glyph d="M520 0l-207 304l-201 -304h-101l252 377l-233 337h108l180 -271l183 271h99l-231 -341l203 -294h58v-231h-81v152h-29z" glyph-name="uni04B2" horiz-adv-x="643" unicode="Ҳ"/><glyph d="M203 275l-174 248h102l125 -185l129 185h92l-171 -247l139 -202h55v-214h-79v140h-26l-144 212l-144 -212h-96z" glyph-name="uni04B3" horiz-adv-x="518" unicode="ҳ"/><glyph d="M186 0v634h-174v80h478v-80h-212v-553h330v633h92v-633h70v-254h-86v173h-498z" glyph-name="uni04B4" horiz-adv-x="793" unicode="Ҵ"/><glyph d="M117 0v449h-105v74h330v-74h-138v-375h247v449h87v-449h61v-214h-79v140h-403z" glyph-name="uni04B5" horiz-adv-x="614" unicode="ҵ"/><glyph d="M468 316q-36 -15 -80 -24t-92 -9q-119 0 -182.5 52.5t-63.5 167.5v211h92v-183q0 -44 8 -76.5t27.5 -53.5t53 -31t83.5 -10q39 0 79.5 7.5t74.5 21.5v325h92v-633h70v-254h-84v173h-78v316z" glyph-name="uni04B6" horiz-adv-x="652" unicode="Ҷ"/><glyph d="M368 0v211q-27 -9 -61.5 -14.5t-67.5 -5.5q-56 0 -94 14t-61 38t-33.5 57t-10.5 71v152h87v-130q0 -70 30 -99.5t99 -29.5q29 0 58 4.5t54 14.5v240h87v-449h62v-214h-79v140h-70z" glyph-name="uni04B7" horiz-adv-x="532" unicode="ҷ"/><glyph d="M50 714h92v-184q0 -38 6 -67.5t20 -50.5t38.5 -33.5t61.5 -16.5v135h76v-137q70 3 131 28v326h92v-714h-92v317q-29 -11 -62.5 -19.5t-68.5 -10.5v-128h-76v127q-106 6 -162 58.5t-56 159.5v210z" glyph-name="uni04B8" horiz-adv-x="646" unicode="Ҹ"/><glyph d="M285 370v-108q52 3 91 19v242h87v-523h-87v211q-20 -7 -43 -11.5t-48 -6.5v-101h-67v100q-50 3 -84 18t-55 38.5t-30 55t-9 67.5v152h87v-137q0 -59 21 -88t70 -35v107h67z" glyph-name="uni04B9" horiz-adv-x="522" unicode="ҹ"/><glyph d="M171 415q32 14 75.5 22.5t89.5 8.5q68 0 116 -14.5t78.5 -42.5t44.5 -69.5t14 -94.5v-225h-92v198q0 44 -8 76.5t-27.5 53.5t-53 31.5t-83.5 10.5q-39 0 -80 -7.5t-74 -21.5v-341h-92v714h92v-299z" glyph-name="uni04BA" horiz-adv-x="639" unicode="Һ"/><glyph d="M67 714h87v-272q38 49 83.5 71t96.5 22q88 0 130.5 -48t42.5 -141v-346h-88v329q0 72 -25.5 101.5t-79.5 29.5q-29 0 -57.5 -10t-51.5 -32q-25 -22 -38 -46.5t-13 -63.5v-308h-87v714z" glyph-name="uni04BB" horiz-adv-x="570" unicode="һ"/><glyph d="M803 199q-9 -48 -31 -87.5t-58.5 -68.5t-87 -45t-116.5 -16q-76 0 -134 26t-98 71.5t-61.5 108.5t-24.5 137q-46 0 -79 10.5t-54 29.5t-31 45t-10 57q0 52 28 99l68 -20q-8 -16 -13 -32.5t-5 -34.5q0 -35 20.5 -56.5t77.5 -22.5q7 74 32 135.5t66 105t96.5 67.5t123.5 24 q81 0 138 -27.5t93.5 -75.5t53 -112.5t16.5 -138.5v-53h-528q1 -50 15.5 -97.5t42.5 -84.5t71 -59.5t102 -22.5q49 0 83.5 11.5t57 31t35.5 44t19 51.5h92zM719 400q-1 55 -12.5 101.5t-36.5 80.5t-64 53t-95 19q-97 0 -154.5 -66.5t-68.5 -187.5h431z" glyph-name="uni04BC" horiz-adv-x="891" unicode="Ҽ"/><glyph d="M610 145q-13 -75 -66.5 -118t-153.5 -43q-114 0 -177 67.5t-67 188.5q-71 3 -103.5 36t-32.5 84q0 40 19 77l60 -14q-5 -14 -8 -26.5t-3 -25.5q0 -28 14 -45t56 -21q6 56 26.5 99.5t52.5 73.5t73.5 45.5t89.5 15.5q60 0 103 -19t70.5 -53t41 -81t13.5 -102v-43h-386 q0 -41 10.5 -75t30 -59t49 -39t68.5 -14q65 0 95 24.5t41 66.5h84zM531 306q0 74 -33 119.5t-109 45.5q-70 0 -109.5 -42.5t-45.5 -122.5h297z" glyph-name="uni04BD" horiz-adv-x="666" unicode="ҽ"/><glyph d="M803 199q-17 -88 -77 -146t-171 -69v-157h-85v157q-66 7 -117 35t-86 73t-53.5 104.5t-21.5 128.5q-46 0 -79 10.5t-54 29.5t-31 45t-10 57q0 52 28 99l68 -20q-8 -16 -13 -32.5t-5 -34.5q0 -35 20.5 -56.5t77.5 -22.5q7 74 32 135.5t66 105t96.5 67.5t123.5 24 q81 0 138 -27.5t93.5 -75.5t53 -112.5t16.5 -138.5v-53h-528q1 -50 15.5 -97.5t42.5 -84.5t71 -59.5t102 -22.5q49 0 83.5 11.5t57 31t35.5 44t19 51.5h92zM719 400q-1 55 -12.5 101.5t-36.5 80.5t-64 53t-95 19q-97 0 -154.5 -66.5t-68.5 -187.5h431z" glyph-name="uni04BE" horiz-adv-x="891" unicode="Ҿ"/><glyph d="M610 145q-12 -68 -56.5 -109.5t-126.5 -49.5v-126h-79v127q-95 11 -147 77.5t-55 175.5q-71 3 -103.5 36t-32.5 84q0 40 19 77l60 -14q-5 -14 -8 -26.5t-3 -25.5q0 -28 14 -45t56 -21q6 56 26.5 99.5t52.5 73.5t73.5 45.5t89.5 15.5q60 0 103 -19t70.5 -53t41 -81 t13.5 -102v-43h-386q0 -41 10.5 -75t30 -59t49 -39t68.5 -14q65 0 95 24.5t41 66.5h84zM531 306q0 74 -33 119.5t-109 45.5q-70 0 -109.5 -42.5t-45.5 -122.5h297z" glyph-name="uni04BF" horiz-adv-x="666" unicode="ҿ"/><glyph d="M79 714h92v-714h-92v714z" glyph-name="uni04C0" horiz-adv-x="250" unicode="Ӏ"/><glyph d="M302 377q-31 11 -55 36.5t-44 73.5l-33 80q-15 36 -33.5 52t-47.5 16q-8 0 -16 -0.5t-15 -1.5q-8 -1 -15 -2l-12 76q10 1 21 3q9 2 20 3t20 1q28 0 49 -4t38.5 -15.5t32 -32t28.5 -53.5l38 -88q24 -57 61 -85.5t91 -28.5h25v307h92v-307h28q54 0 88.5 29t60.5 85l41 88 q15 32 32 52.5t36.5 32t41.5 16t48 4.5q9 0 17.5 -1t16.5 -3q9 -2 17 -3l-10 -76l-12 2q-5 1 -12.5 1.5t-15.5 0.5q-34 0 -53.5 -16t-35.5 -52l-36 -80q-36 -81 -96 -110q26 -8 47 -28.5t48 -59.5l196 -289h-109l-164 245q-18 27 -33 43t-31.5 25t-36.5 12t-47 3h-26v-328 h-92v328h-29q-27 0 -46.5 -3t-36 -12t-31 -25t-32.5 -43l-162 -245h-109l194 289q28 42 49 61t50 27zM415 909q2 -38 25 -59.5t64 -21.5t64 21.5t26 59.5h66q0 -62 -40.5 -100.5t-115.5 -38.5q-77 0 -116 38.5t-39 100.5h66z" glyph-name="uni04C1" horiz-adv-x="1003" unicode="Ӂ"/><glyph d="M427 0h-83v233h-31q-20 0 -33.5 -4t-25 -13t-21.5 -22.5t-22 -31.5l-107 -162h-96l139 205q18 27 35.5 41.5t38.5 22.5q-23 10 -38.5 24t-31.5 50l-31 67q-11 22 -21 33t-35 11q-11 0 -20.5 -1t-12.5 -3l-8 67q6 2 18 4t26 2q26 0 45 -5t33.5 -16t26 -28.5t22.5 -42.5 l25 -55q20 -45 43.5 -62.5t58.5 -17.5h23v227h83v-227h22q37 0 58.5 18t43.5 62l27 55q10 21 20 37t22 27t26.5 17.5t35.5 9.5q7 1 14.5 1h16.5q12 -1 22.5 -3t13.5 -3l-8 -67q-8 4 -33 4q-30 0 -42 -16t-27 -48l-22 -47q-12 -27 -27.5 -44.5t-38.5 -28.5q24 -9 43.5 -29 t43.5 -55l124 -186h-98l-120 180q-18 27 -36 40t-51 13h-30v-233zM298 726q2 -38 25 -59.5t64 -21.5t64 21.5t26 59.5h66q0 -62 -40.5 -100.5t-115.5 -38.5q-77 0 -116 38.5t-39 100.5h66z" glyph-name="uni04C2" horiz-adv-x="771" unicode="ӂ"/><glyph d="M217 407q48 0 79.5 26.5t57.5 82.5l41 89q29 63 65.5 86t88.5 23q11 0 21.5 -1t18.5 -3q9 -2 16 -3l-10 -76l-10 2t-11 1.5t-14 0.5q-15 0 -27.5 -2.5t-23.5 -10t-21.5 -21.5t-21.5 -37l-40 -87q-9 -20 -23.5 -42t-39.5 -36q66 -6 112.5 -29t76 -59t43 -84t13.5 -106 q0 -59 -16.5 -110.5t-52.5 -89.5t-92 -59.5t-134 -21.5h-43v80h47q197 0 197 201q0 109 -53 158.5t-168 49.5h-122v-329h-92v714h92v-307h46z" glyph-name="uni04C3" horiz-adv-x="649" unicode="Ӄ"/><glyph d="M202 298q29 0 46.5 19.5t32.5 51.5l31 66q21 46 50 67t79 21q10 0 18.5 -1t14.5 -2q7 -2 13 -3l-9 -67l-10 2t-10.5 1.5t-11.5 0.5q-27 0 -40 -12.5t-24 -36.5l-28 -62q-17 -35 -41 -52q94 -14 139.5 -73.5t45.5 -160.5q0 -56 -15 -103.5t-46.5 -82t-81 -54t-118.5 -19.5 h-30v72h37q80 0 122.5 44t42.5 141q0 96 -42 136.5t-126 40.5h-87v-232h-88v523h88v-225h48z" glyph-name="uni04C4" horiz-adv-x="527" unicode="ӄ"/><glyph d="M556 635h-226l-32 -260q-12 -102 -33.5 -174t-54 -118t-77 -67.5t-103.5 -21.5h-21v81h13q37 0 66.5 16t53 55t41 105t29.5 167l36 296h401v-633h66q0 -78 -28.5 -146t-100.5 -120l-53 58q31 23 55 54.5t35 72.5h-67v635z" glyph-name="uni04C5" horiz-adv-x="737" unicode="Ӆ"/><glyph d="M418 452h-173l-22 -180q-9 -75 -25 -127.5t-41 -86t-59.5 -48.5t-80.5 -15h-17v73h10q26 0 46.5 10t37 36t28.5 72t20 117l25 220h338v-449h56q0 -76 -24 -127.5t-84 -93.5l-45 51q26 21 43.5 44t25.5 52h-59v452z" glyph-name="uni04C6" horiz-adv-x="577" unicode="ӆ"/><glyph d="M624 -26q0 -94 -35 -135.5t-120 -41.5q-23 0 -47 3t-48 11l16 72q14 -4 31 -7t38 -3q34 0 53.5 19t19.5 64v370h-361v-326h-92v714h92v-302h361v302h92v-740z" glyph-name="uni04C7" horiz-adv-x="703" unicode="Ӈ"/><glyph d="M515 -25q0 -39 -6 -72t-22 -57t-43.5 -37.5t-70.5 -13.5q-30 0 -52.5 4.5t-42.5 11.5l15 69q14 -5 30.5 -7.5t36.5 -2.5q37 0 52.5 19.5t15.5 61.5v285h-275v-236h-87v523h87v-213h275v213h87v-548z" glyph-name="uni04C8" horiz-adv-x="581" unicode="ӈ"/><glyph d="M79 714h92v-302h361v302h92v-633h66q0 -78 -28.5 -146t-99.5 -120l-53 58q30 23 54 54.5t35 72.5h-66v326h-361v-326h-92v714z" glyph-name="uni04C9" horiz-adv-x="712" unicode="Ӊ"/><glyph d="M153 523v-213h275v213h87v-449h56q0 -76 -24.5 -127.5t-83.5 -93.5l-45 51q52 41 69 96h-59v236h-275v-236h-87v523h87z" glyph-name="uni04CA" horiz-adv-x="586" unicode="ӊ"/><glyph d="M481 -173h-83v254h70v235q-36 -15 -80 -24t-92 -9q-119 0 -182.5 52.5t-63.5 167.5v211h92v-183q0 -44 8 -76.5t27.5 -53.5t53 -31t83.5 -10q39 0 79.5 7.5t74.5 21.5v325h92v-714h-79v-173z" glyph-name="uni04CB" horiz-adv-x="639" unicode="Ӌ"/><glyph d="M384 -140h-79v214h63v137q-27 -9 -61.5 -14.5t-67.5 -5.5q-56 0 -94 14t-61 38t-33.5 57t-10.5 71v152h87v-130q0 -70 30 -99.5t99 -29.5q29 0 58 4.5t54 14.5v240h87v-523h-71v-140z" glyph-name="uni04CC" horiz-adv-x="522" unicode="ӌ"/><glyph d="M79 714h114l230 -604l234 604h110v-633h67q0 -78 -29 -146t-100 -120l-53 58q30 23 54 54.5t35 72.5h-59v563l-224 -563h-75l-220 561v-561h-84v714z" glyph-name="uni04CD" horiz-adv-x="856" unicode="Ӎ"/><glyph d="M67 523h106l177 -431l183 431h101v-449h57q0 -76 -24.5 -127.5t-83.5 -93.5l-45 51q52 41 69 96h-53v396l-171 -396h-72l-163 392v-392h-81v523z" glyph-name="uni04CE" horiz-adv-x="706" unicode="ӎ"/><glyph d="M79 714h92v-714h-92v714z" glyph-name="uni04CF" horiz-adv-x="250" unicode="ӏ"/><glyph d="M334 610l-124 -331h250zM386 714l277 -714h-100l-75 199h-306l-75 -199h-96l278 714h97zM251 909q2 -38 25 -59.5t64 -21.5t64 21.5t26 59.5h66q0 -62 -40.5 -100.5t-115.5 -38.5q-77 0 -116 38.5t-39 100.5h66z" glyph-name="uni04D0" horiz-adv-x="674" unicode="Ӑ"/><glyph d="M389 71q-28 -34 -71 -58.5t-107 -24.5q-39 0 -71.5 9.5t-56 29t-36.5 48.5t-13 68q0 54 22.5 88.5t60 54t84.5 27t97 9.5l89 3v21q0 66 -28 95t-91 29q-62 0 -91 -20.5t-38 -56.5l-79 9q14 71 67 103.5t144 32.5q56 0 94.5 -13.5t62.5 -38.5t34.5 -62t10.5 -83v-341h-84 v71zM387 263l-83 -3q-53 -2 -88 -10t-55.5 -22t-29 -34.5t-8.5 -48.5q0 -39 23.5 -62.5t77.5 -23.5q77 0 120 38t43 104v62zM180 726q2 -38 25 -59.5t64 -21.5t64 21.5t26 59.5h66q0 -62 -40.5 -100.5t-115.5 -38.5q-77 0 -116 38.5t-39 100.5h66z" glyph-name="uni04D1" horiz-adv-x="538" unicode="ӑ"/><glyph d="M289 714h97l277 -714h-100l-75 199h-306l-75 -199h-96zM460 279l-126 331l-124 -331h250zM201 892h91v-102h-91v102zM380 892h92v-102h-92v102z" glyph-name="uni04D2" horiz-adv-x="674" unicode="Ӓ"/><glyph d="M389 71q-28 -34 -71 -58.5t-107 -24.5q-39 0 -71.5 9.5t-56 29t-36.5 48.5t-13 68q0 54 22.5 88.5t60 54t84.5 27t97 9.5l89 3v21q0 66 -28 95t-91 29q-62 0 -91 -20.5t-38 -56.5l-79 9q14 71 67 103.5t144 32.5q56 0 94.5 -13.5t62.5 -38.5t34.5 -62t10.5 -83v-341h-84 v71zM387 263l-83 -3q-53 -2 -88 -10t-55.5 -22t-29 -34.5t-8.5 -48.5q0 -39 23.5 -62.5t77.5 -23.5q77 0 120 38t43 104v62zM135 714h88v-99h-88v99zM309 714h89v-99h-89v99z" glyph-name="uni04D3" horiz-adv-x="538" unicode="ӓ"/><glyph d="M440 714h546v-81h-347v-224h327v-82h-327v-246h366l-15 -81h-439v237h-301l-140 -237h-105zM551 316v317h-66l-189 -317h255z" glyph-name="uni04D4" horiz-adv-x="1039" unicode="Ӕ"/><glyph d="M60 402q8 39 27.5 65.5t47 42t62.5 22t73 6.5q61 0 102.5 -19.5t67.5 -71.5q34 48 79.5 70t99.5 22q59 0 101.5 -19.5t70 -53.5t40.5 -80.5t13 -101.5v-44h-378q1 -39 11 -73t29.5 -59t47.5 -39.5t66 -14.5q62 0 91.5 24.5t40.5 66.5h84q-13 -75 -66 -118t-151 -43 q-72 0 -122.5 30.5t-75.5 82.5q-12 -19 -29.5 -38.5t-42 -35t-57.5 -25.5t-75 -10q-81 0 -132 38.5t-51 116.5q0 53 22 87t58.5 53.5t83 27.5t94.5 10l89 3v15q0 68 -26 99.5t-90 31.5q-60 0 -88.5 -20.5t-37.5 -56.5zM381 262l-83 -3q-52 -2 -85.5 -10.5t-53.5 -22.5 t-28 -34.5t-8 -46.5q0 -47 27.5 -66.5t72.5 -19.5q31 0 60 9t50.5 26.5t34.5 44t13 62.5v61zM758 305q0 37 -8 67.5t-25 52.5t-43.5 34.5t-63.5 12.5q-66 0 -104 -43.5t-46 -123.5h290z" glyph-name="uni04D5" horiz-adv-x="892" unicode="ӕ"/><glyph d="M541 714v-81h-370v-224h350v-82h-350v-246h389l-15 -81h-466v714h462zM233 909q2 -38 25 -59.5t64 -21.5t64 21.5t26 59.5h66q0 -62 -40.5 -100.5t-115.5 -38.5q-77 0 -116 38.5t-39 100.5h66z" glyph-name="uni04D6" horiz-adv-x="594" unicode="Ӗ"/><glyph d="M514 145q-13 -75 -66.5 -118t-153.5 -43q-118 0 -181 72.5t-63 201.5q0 67 18 119.5t50.5 88.5t77.5 54.5t98 18.5q60 0 103 -19t70.5 -53t41 -81t13.5 -102v-43h-384q0 -41 10.5 -75t30 -59t48.5 -39t67 -14q65 0 95 24.5t41 66.5h84zM435 306q0 74 -33 119.5t-109 45.5 q-69 0 -108 -42.5t-45 -122.5h295zM206 729q2 -38 25 -59.5t64 -21.5t64 21.5t26 59.5h66q0 -62 -40.5 -100.5t-115.5 -38.5q-77 0 -116 38.5t-39 100.5h66z" glyph-name="uni04D7" horiz-adv-x="570" unicode="ӗ"/><glyph d="M72 533q14 42 37 78.5t58 63t84 42t115 15.5q79 0 138 -28t98 -76.5t58.5 -115t19.5 -143.5q0 -85 -21 -156t-61 -122.5t-98 -80t-133 -28.5q-81 0 -139.5 27.5t-96 75.5t-55 112.5t-17.5 138.5v53h527q-1 53 -15 101t-41.5 84t-68 57.5t-95.5 21.5q-48 0 -82 -9.5 t-58 -27t-40 -42.5t-28 -57zM153 314q0 -55 12.5 -101.5t39 -80.5t67 -53t96.5 -19q97 0 151 66.5t65 187.5h-431z" glyph-name="uni04D8" horiz-adv-x="744" unicode="Ә"/><glyph d="M64 381q16 72 74 113t154 41q57 0 100.5 -20t73.5 -56t45.5 -86t15.5 -109q0 -67 -17 -119t-48 -88t-75.5 -54.5t-98.5 -18.5q-60 0 -104 19t-72.5 53t-42.5 80.5t-14 102.5v42h385q0 39 -9.5 73t-28 58.5t-46.5 38.5t-65 14q-65 0 -98.5 -25t-47.5 -71zM142 216 q0 -37 8.5 -67.5t26.5 -52t46.5 -33.5t67.5 -12q67 0 104 43t44 122h-297z" glyph-name="uni04D9" horiz-adv-x="576" unicode="ә"/><glyph d="M72 533q14 42 37 78.5t58 63t84 42t115 15.5q79 0 138 -28t98 -76.5t58.5 -115t19.5 -143.5q0 -85 -21 -156t-61 -122.5t-98 -80t-133 -28.5q-81 0 -139.5 27.5t-96 75.5t-55 112.5t-17.5 138.5v53h527q-1 53 -15 101t-41.5 84t-68 57.5t-95.5 21.5q-48 0 -82 -9.5 t-58 -27t-40 -42.5t-28 -57zM153 314q0 -55 12.5 -101.5t39 -80.5t67 -53t96.5 -19q97 0 151 66.5t65 187.5h-431zM234 892h91v-102h-91v102zM413 892h92v-102h-92v102z" glyph-name="uni04DA" horiz-adv-x="744" unicode="Ӛ"/><glyph d="M64 381q16 72 74 113t154 41q57 0 100.5 -20t73.5 -56t45.5 -86t15.5 -109q0 -67 -17 -119t-48 -88t-75.5 -54.5t-98.5 -18.5q-60 0 -104 19t-72.5 53t-42.5 80.5t-14 102.5v42h385q0 39 -9.5 73t-28 58.5t-46.5 38.5t-65 14q-65 0 -98.5 -25t-47.5 -71zM142 216 q0 -37 8.5 -67.5t26.5 -52t46.5 -33.5t67.5 -12q67 0 104 43t44 122h-297zM156 714h88v-99h-88v99zM330 714h89v-99h-89v99z" glyph-name="uni04DB" horiz-adv-x="576" unicode="ӛ"/><glyph d="M302 377q-31 11 -55 36.5t-44 73.5l-33 80q-15 36 -33.5 52t-47.5 16q-8 0 -16 -0.5t-15 -1.5q-8 -1 -15 -2l-12 76q10 1 21 3q9 2 20 3t20 1q28 0 49 -4t38.5 -15.5t32 -32t28.5 -53.5l38 -88q24 -57 61 -85.5t91 -28.5h25v307h92v-307h28q54 0 88.5 29t60.5 85l41 88 q15 32 32 52.5t36.5 32t41.5 16t48 4.5q9 0 17.5 -1t16.5 -3q9 -2 17 -3l-10 -76l-12 2q-5 1 -12.5 1.5t-15.5 0.5q-34 0 -53.5 -16t-35.5 -52l-36 -80q-36 -81 -96 -110q26 -8 47 -28.5t48 -59.5l196 -289h-109l-164 245q-18 27 -33 43t-31.5 25t-36.5 12t-47 3h-26v-328 h-92v328h-29q-27 0 -46.5 -3t-36 -12t-31 -25t-32.5 -43l-162 -245h-109l194 289q28 42 49 61t50 27zM365 892h91v-102h-91v102zM544 892h92v-102h-92v102z" glyph-name="uni04DC" horiz-adv-x="1003" unicode="Ӝ"/><glyph d="M427 0h-83v233h-31q-20 0 -33.5 -4t-25 -13t-21.5 -22.5t-22 -31.5l-107 -162h-96l139 205q18 27 35.5 41.5t38.5 22.5q-23 10 -38.5 24t-31.5 50l-31 67q-11 22 -21 33t-35 11q-11 0 -20.5 -1t-12.5 -3l-8 67q6 2 18 4t26 2q26 0 45 -5t33.5 -16t26 -28.5t22.5 -42.5 l25 -55q20 -45 43.5 -62.5t58.5 -17.5h23v227h83v-227h22q37 0 58.5 18t43.5 62l27 55q10 21 20 37t22 27t26.5 17.5t35.5 9.5q7 1 14.5 1h16.5q12 -1 22.5 -3t13.5 -3l-8 -67q-8 4 -33 4q-30 0 -42 -16t-27 -48l-22 -47q-12 -27 -27.5 -44.5t-38.5 -28.5q24 -9 43.5 -29 t43.5 -55l124 -186h-98l-120 180q-18 27 -36 40t-51 13h-30v-233zM254 714h88v-99h-88v99zM428 714h89v-99h-89v99z" glyph-name="uni04DD" horiz-adv-x="771" unicode="ӝ"/><glyph d="M128 191q6 -40 20.5 -65.5t37 -40.5t53 -20.5t69.5 -5.5q85 0 127.5 35.5t42.5 104.5q0 70 -43 101.5t-120 31.5h-99v78h102q66 0 105.5 32t39.5 96q0 57 -39 87t-114 30q-38 0 -65.5 -6t-48.5 -19.5t-35.5 -36.5t-25.5 -56l-85 13q7 38 26.5 71t51.5 58t78 39t108 14 q61 0 105.5 -14.5t74 -40t44 -59t14.5 -70.5q0 -55 -23.5 -99t-76.5 -70q60 -23 88 -69.5t28 -109.5q0 -48 -16 -88t-48.5 -69t-82 -45t-115.5 -16q-72 0 -122.5 17.5t-82 46.5t-46 66.5t-15.5 78.5h88zM182 892h91v-102h-91v102zM361 892h92v-102h-92v102z" glyph-name="uni04DE" horiz-adv-x="617" unicode="Ӟ"/><glyph d="M262 539q53 0 91.5 -11t64 -30.5t37.5 -45t12 -55.5q0 -44 -24 -75.5t-61 -45.5q44 -14 71 -45.5t27 -84.5q0 -35 -13 -64t-40.5 -51t-70 -34t-100.5 -12q-100 0 -159 39.5t-65 128.5h84q8 -53 43 -75.5t101 -22.5q73 0 101.5 25.5t28.5 66.5q0 45 -30 68t-85 23h-105v64 h109q49 0 74.5 22.5t25.5 61.5t-29 60.5t-90 21.5q-35 0 -59 -5.5t-39.5 -16.5t-25.5 -27.5t-17 -37.5l-79 14q8 31 23.5 57.5t41.5 45.5t64.5 30t92.5 11zM128 714h88v-99h-88v99zM302 714h89v-99h-89v99z" glyph-name="uni04DF" horiz-adv-x="525" unicode="ӟ"/><glyph d="M56 633v81h455v-71l-215 -227q57 -2 103.5 -14.5t78.5 -38t49.5 -65t17.5 -95.5q0 -48 -15.5 -88.5t-47 -70t-80.5 -46t-115 -16.5q-69 0 -117 17.5t-79 47t-45 67t-15 77.5h87q4 -32 14.5 -56.5t31 -41t51.5 -25.5t76 -9q85 0 124 36.5t39 107.5q0 72 -42 107.5 t-141 35.5h-78v65l209 222h-346z" glyph-name="uni04E0" horiz-adv-x="585" unicode="Ӡ"/><glyph d="M31 453v70h406v-62l-205 -234h4q109 0 169 -54t60 -157q0 -100 -60 -160.5t-176 -60.5q-57 0 -99 14.5t-69.5 39.5t-41.5 58t-17 71h85q3 -26 12 -46.5t26 -35.5t43 -23t63 -8q72 0 109 39t37 110q0 74 -40 110t-135 36h-63v64l197 229h-305z" glyph-name="uni04E1" horiz-adv-x="493" unicode="ӡ"/><glyph d="M521 0v564l-352 -564h-90v714h90v-565l351 565h90v-714h-89zM216 869h292v-74h-292v74z" glyph-name="uni04E2" horiz-adv-x="689" unicode="Ӣ"/><glyph d="M497 0h-82v394l-267 -394h-82v523h81v-395l267 395h83v-523zM160 693h261v-71h-261v71z" glyph-name="uni04E3" horiz-adv-x="563" unicode="ӣ"/><glyph d="M521 0v564l-352 -564h-90v714h90v-565l351 565h90v-714h-89zM213 892h91v-102h-91v102zM392 892h92v-102h-92v102z" glyph-name="uni04E4" horiz-adv-x="689" unicode="Ӥ"/><glyph d="M497 0h-82v394l-267 -394h-82v523h81v-395l267 395h83v-523zM150 714h88v-99h-88v99zM324 714h89v-99h-89v99z" glyph-name="uni04E5" horiz-adv-x="563" unicode="ӥ"/><glyph d="M383 -18q-73 0 -133.5 24.5t-104 72t-67.5 117.5t-24 160t24.5 160t68 118t104 73t132.5 25q73 0 133.5 -24.5t103.5 -72t67 -117t24 -159.5t-23.5 -160.5t-66.5 -118.5t-103.5 -73t-134.5 -25zM383 62q57 0 100.5 21t72.5 59.5t44 93t15 121.5q0 66 -15 120.5 t-44.5 93.5t-72.5 60t-100 21q-58 0 -101.5 -21t-73 -60t-44 -93.5t-14.5 -120.5q0 -67 14.5 -121.5t43.5 -93t72.5 -59.5t102.5 -21zM247 892h91v-102h-91v102zM426 892h92v-102h-92v102z" glyph-name="uni04E6" horiz-adv-x="765" unicode="Ӧ"/><glyph d="M299 -16q-59 0 -105 19.5t-78 55.5t-49 87t-17 115q0 63 18 114.5t51 88t79.5 56t103.5 19.5q58 0 104 -19.5t78.5 -55t49.5 -86t17 -113.5q0 -64 -17.5 -116t-50 -88.5t-79.5 -56.5t-105 -20zM300 56q42 0 72 15.5t49.5 43t28.5 65.5t9 83t-9 82.5t-28.5 64.5t-49.5 42 t-72 15t-71.5 -15t-49 -42t-28.5 -64.5t-9 -82.5t9 -83t28 -65.5t49 -43t72 -15.5zM169 714h88v-99h-88v99zM343 714h89v-99h-89v99z" glyph-name="uni04E7" horiz-adv-x="601" unicode="ӧ"/><glyph d="M383 -18q-73 0 -133.5 24.5t-104 72t-67.5 117.5t-24 160t24.5 160t68 118t104 73t132.5 25q73 0 133.5 -24.5t103.5 -72t67 -117t24 -159.5t-23.5 -160.5t-66.5 -118.5t-103.5 -73t-134.5 -25zM383 62q53 0 94.5 18.5t70.5 52t45.5 81.5t20.5 108h-463q3 -60 19.5 -108 t45.5 -81.5t70.5 -52t96.5 -18.5zM383 652q-53 0 -94 -17.5t-70 -50t-46 -78.5t-21 -103h461q-5 57 -22 103t-46.5 78.5t-70 50t-91.5 17.5z" glyph-name="uni04E8" horiz-adv-x="765" unicode="Ө"/><glyph d="M299 -16q-59 0 -105 19.5t-78 55.5t-49 87t-17 115q0 63 18 114.5t51 88t79.5 56t103.5 19.5q58 0 104 -19.5t78.5 -55t49.5 -86t17 -113.5q0 -64 -17.5 -116t-50 -88.5t-79.5 -56.5t-105 -20zM300 56q76 0 114 48.5t43 127.5h-314q3 -39 13.5 -71.5t29.5 -56t47.5 -36 t66.5 -12.5zM300 467q-74 0 -112 -46t-45 -120h314q-7 75 -44.5 120.5t-112.5 45.5z" glyph-name="uni04E9" horiz-adv-x="601" unicode="ө"/><glyph d="M383 -18q-73 0 -133.5 24.5t-104 72t-67.5 117.5t-24 160t24.5 160t68 118t104 73t132.5 25q73 0 133.5 -24.5t103.5 -72t67 -117t24 -159.5t-23.5 -160.5t-66.5 -118.5t-103.5 -73t-134.5 -25zM383 62q53 0 94.5 18.5t70.5 52t45.5 81.5t20.5 108h-463q3 -60 19.5 -108 t45.5 -81.5t70.5 -52t96.5 -18.5zM383 652q-53 0 -94 -17.5t-70 -50t-46 -78.5t-21 -103h461q-5 57 -22 103t-46.5 78.5t-70 50t-91.5 17.5zM247 892h91v-102h-91v102zM426 892h92v-102h-92v102z" glyph-name="uni04EA" horiz-adv-x="765" unicode="Ӫ"/><glyph d="M299 -16q-59 0 -105 19.5t-78 55.5t-49 87t-17 115q0 63 18 114.5t51 88t79.5 56t103.5 19.5q58 0 104 -19.5t78.5 -55t49.5 -86t17 -113.5q0 -64 -17.5 -116t-50 -88.5t-79.5 -56.5t-105 -20zM300 56q76 0 114 48.5t43 127.5h-314q3 -39 13.5 -71.5t29.5 -56t47.5 -36 t66.5 -12.5zM300 467q-74 0 -112 -46t-45 -120h314q-7 75 -44.5 120.5t-112.5 45.5zM169 714h88v-99h-88v99zM343 714h89v-99h-89v99z" glyph-name="uni04EB" horiz-adv-x="601" unicode="ӫ"/><glyph d="M560 407q-7 115 -60 180t-144 65q-38 0 -70.5 -7t-58.5 -23.5t-45.5 -44t-32.5 -68.5l-88 16q13 47 37.5 85.5t60.5 65.5t84 41.5t110 14.5q67 0 123 -23.5t96 -69t62 -114t22 -158.5q0 -93 -22 -164.5t-63.5 -120.5t-99.5 -74.5t-130 -25.5q-75 0 -127 18.5t-86 50 t-52 73.5t-24 88h95q5 -30 17.5 -57.5t35 -48t56.5 -32.5t84 -12q103 0 158.5 68.5t61.5 196.5h-313v80h313zM216 892h91v-102h-91v102zM395 892h92v-102h-92v102z" glyph-name="uni04EC" horiz-adv-x="710" unicode="Ӭ"/><glyph d="M194 299h225q-6 80 -42.5 124.5t-102.5 44.5q-58 0 -91 -23t-48 -73l-81 14q18 67 72.5 110t150.5 43q56 0 99.5 -19.5t73 -56t45 -87.5t15.5 -114q0 -61 -16 -112t-46.5 -88t-75.5 -57.5t-102 -20.5q-104 0 -158.5 48t-62.5 125h84q7 -45 38.5 -73.5t103.5 -28.5 q36 0 62.5 13t44.5 36.5t27 56t11 71.5h-226v67zM146 714h88v-99h-88v99zM320 714h89v-99h-89v99z" glyph-name="uni04ED" horiz-adv-x="560" unicode="ӭ"/><glyph d="M41 74q11 -5 31.5 -10.5t45.5 -5.5q42 0 71.5 23t55.5 79l17 38l-254 516h99l200 -426l168 426h96l-230 -543q-21 -50 -42.5 -85.5t-48 -58.5t-59.5 -34t-77 -11q-29 0 -53.5 6t-38.5 13zM158 869h292v-74h-292v74z" glyph-name="uni04EE" horiz-adv-x="574" unicode="Ӯ"/><glyph d="M61 -109q13 -5 29 -8.5t31 -3.5q31 0 48.5 17t36.5 62l22 53l-221 512h101l164 -412l149 412h96l-226 -572q-14 -35 -28.5 -62t-32.5 -45.5t-41.5 -28t-54.5 -9.5q-30 0 -50 4t-40 11zM149 693h261v-71h-261v71z" glyph-name="uni04EF" horiz-adv-x="524" unicode="ӯ"/><glyph d="M41 74q11 -5 31.5 -10.5t45.5 -5.5q42 0 71.5 23t55.5 79l17 38l-254 516h99l200 -426l168 426h96l-230 -543q-21 -50 -42.5 -85.5t-48 -58.5t-59.5 -34t-77 -11q-29 0 -53.5 6t-38.5 13zM162 892h91v-102h-91v102zM341 892h92v-102h-92v102z" glyph-name="uni04F0" horiz-adv-x="574" unicode="Ӱ"/><glyph d="M61 -109q13 -5 29 -8.5t31 -3.5q31 0 48.5 17t36.5 62l22 53l-221 512h101l164 -412l149 412h96l-226 -572q-14 -35 -28.5 -62t-32.5 -45.5t-41.5 -28t-54.5 -9.5q-30 0 -50 4t-40 11zM150 714h88v-99h-88v99zM324 714h89v-99h-89v99z" glyph-name="uni04F1" horiz-adv-x="524" unicode="ӱ"/><glyph d="M41 74q11 -5 31.5 -10.5t45.5 -5.5q42 0 71.5 23t55.5 79l17 38l-254 516h99l200 -426l168 426h96l-230 -543q-21 -50 -42.5 -85.5t-48 -58.5t-59.5 -34t-77 -11q-29 0 -53.5 6t-38.5 13zM253 908h102l-130 -135h-80zM433 908h102l-131 -135h-80z" glyph-name="uni04F2" horiz-adv-x="574" unicode="Ӳ"/><glyph d="M61 -109q13 -5 29 -8.5t31 -3.5q31 0 48.5 17t36.5 62l22 53l-221 512h101l164 -412l149 412h96l-226 -572q-14 -35 -28.5 -62t-32.5 -45.5t-41.5 -28t-54.5 -9.5q-30 0 -50 4t-40 11zM230 733h100l-124 -142h-79zM404 733h100l-125 -142h-78z" glyph-name="uni04F3" horiz-adv-x="524" unicode="ӳ"/><glyph d="M468 316q-36 -15 -80 -24t-92 -9q-119 0 -182.5 52.5t-63.5 167.5v211h92v-183q0 -44 8 -76.5t27.5 -53.5t53 -31t83.5 -10q39 0 79.5 7.5t74.5 21.5v325h92v-714h-92v316zM170 892h91v-102h-91v102zM349 892h92v-102h-92v102z" glyph-name="uni04F4" horiz-adv-x="639" unicode="Ӵ"/><glyph d="M368 211q-27 -9 -61.5 -14.5t-67.5 -5.5q-56 0 -94 14t-61 38t-33.5 57t-10.5 71v152h87v-130q0 -70 30 -99.5t99 -29.5q29 0 58 4.5t54 14.5v240h87v-523h-87v211zM118 714h88v-99h-88v99zM292 714h89v-99h-89v99z" glyph-name="uni04F5" horiz-adv-x="522" unicode="ӵ"/><glyph d="M79 0v714h435v-81h-343v-552h70v-254h-84v173h-78z" glyph-name="uni04F6" horiz-adv-x="524" unicode="Ӷ"/><glyph d="M66 0v523h348v-75h-261v-374h62v-214h-79v140h-70z" glyph-name="uni04F7" horiz-adv-x="422" unicode="ӷ"/><glyph d="M316 447q79 0 130.5 -18.5t82 -49.5t42.5 -71.5t12 -84.5q0 -47 -12.5 -87.5t-44 -70.5t-84 -47.5t-132.5 -17.5h-231v714h92v-267h145zM171 78h146q49 0 82 8.5t53.5 26.5t29.5 44.5t9 62.5t-8.5 63.5t-29.5 46.5t-56 29t-87 10h-139v-291zM691 714h92v-714h-92v714z M288 892h91v-102h-91v102zM467 892h92v-102h-92v102z" glyph-name="uni04F8" horiz-adv-x="861" unicode="Ӹ"/><glyph d="M153 523v-192h156q98 0 142 -44.5t44 -118.5q0 -75 -48.5 -121.5t-151.5 -46.5h-229v523h87zM565 523h87v-523h-87v523zM153 72h146q55 0 80 24.5t25 69.5q0 46 -23.5 70t-85.5 24h-142v-188zM230 714h88v-99h-88v99zM404 714h89v-99h-89v99z" glyph-name="uni04F9" horiz-adv-x="718" unicode="ӹ"/><glyph d="M12 714h104l149 -587l155 584h99l154 -584l148 587h98l-198 -714h-97l-159 597l-156 -597h-94zM421 908l117 -135h-87l-138 135h108z" glyph-name="Wgrave" horiz-adv-x="931" unicode="Ẁ"/><glyph d="M8 517h95l104 -412l119 409h88l116 -409l103 412h92l-151 -517h-92l-116 412l-117 -412h-91zM207 733h107l114 -142h-86z" glyph-name="wgrave" horiz-adv-x="733" unicode="ẁ"/><glyph d="M12 714h104l149 -587l155 584h99l154 -584l148 587h98l-198 -714h-97l-159 597l-156 -597h-94zM514 908h108l-138 -135h-87z" glyph-name="Wacute" horiz-adv-x="931" unicode="Ẃ"/><glyph d="M8 517h95l104 -412l119 409h88l116 -409l103 412h92l-151 -517h-92l-116 412l-117 -412h-91zM423 733h107l-135 -142h-86z" glyph-name="wacute" horiz-adv-x="733" unicode="ẃ"/><glyph d="M12 714h104l149 -587l155 584h99l154 -584l148 587h98l-198 -714h-97l-159 597l-156 -597h-94zM331 892h91v-102h-91v102zM510 892h92v-102h-92v102z" glyph-name="Wdieresis" horiz-adv-x="931" unicode="Ẅ"/><glyph d="M8 517h95l104 -412l119 409h88l116 -409l103 412h92l-151 -517h-92l-116 412l-117 -412h-91zM235 714h88v-99h-88v99zM409 714h89v-99h-89v99z" glyph-name="wdieresis" horiz-adv-x="733" unicode="ẅ"/><glyph d="M262 303l-249 411h106l189 -330l194 330h97l-244 -411v-303h-93v303zM255 908l117 -135h-87l-138 135h108z" glyph-name="Ygrave" horiz-adv-x="613" unicode="Ỳ"/><glyph d="M65 -110q28 -10 56 -10q32 0 49.5 16.5t34.5 61.5l21 55l-219 504h101l163 -406l149 406h96l-226 -566q-14 -35 -28 -61.5t-31 -45.5t-40.5 -28.5t-57.5 -9.5q-24 0 -43 3t-42 11zM104 733h107l114 -142h-86z" glyph-name="ygrave" horiz-adv-x="523" unicode="ỳ"/><glyph d="M0 335h500v-85h-500v85z" glyph-name="endash" horiz-adv-x="500" unicode="–"/><glyph d="M0 335h1000v-85h-1000v85z" glyph-name="emdash" horiz-adv-x="1000" unicode="—"/><glyph d="M1000 335v-85h-1000v85h1000z" glyph-name="afii00208" horiz-adv-x="1000" unicode="―"/><glyph d="M100 714h69l-29 -215h-93z" glyph-name="quoteleft" horiz-adv-x="208" unicode="‘"/><glyph d="M68 714h93l-53 -215h-69z" glyph-name="quoteright" horiz-adv-x="208" unicode="’"/><glyph d="M72 119h93l-53 -216h-69z" glyph-name="quotesinglbase" horiz-adv-x="208" unicode="‚"/><glyph d="M100 714h69l-29 -215h-93zM260 714h69l-29 -215h-93z" glyph-name="quotedblleft" horiz-adv-x="368" unicode="“"/><glyph d="M68 714h93l-53 -215h-69zM228 714h93l-53 -215h-69z" glyph-name="quotedblright" horiz-adv-x="368" unicode="”"/><glyph d="M72 119h93l-53 -216h-69zM232 119h93l-53 -216h-69z" glyph-name="quotedblbase" horiz-adv-x="368" unicode="„"/><glyph d="M191 445h-172v76h172v193h86v-193h171v-76h-171v-532h-86v532z" glyph-name="dagger" horiz-adv-x="467" unicode="†"/><glyph d="M191 114h-172v77h172v258h-172v75h172v190h86v-190h171v-75h-171v-258h171v-77h-171v-201h-86v201z" glyph-name="daggerdbl" horiz-adv-x="467" unicode="‡"/><glyph d="M44 365q0 30 10.5 55t28.5 43t43.5 28t55.5 10q29 0 54 -10t43 -28t28.5 -43t10.5 -55q0 -31 -10.5 -56.5t-28.5 -43.5t-43 -28t-54 -10q-30 0 -55.5 10t-43.5 28t-28.5 43.5t-10.5 56.5z" glyph-name="bullet" horiz-adv-x="361" unicode="•"/><glyph d="M62 117h100v-117h-100v117zM682 117h100v-117h-100v117zM372 117h100v-117h-100v117z" glyph-name="ellipsis" horiz-adv-x="844" unicode="…"/><glyph d="M325 0h-85l351 691h85zM708 -19q-38 0 -69.5 13t-55 39t-36.5 66.5t-13 96.5q0 55 13.5 95.5t37 67t55 39.5t68.5 13q38 0 70 -13t55 -39.5t36 -67t13 -95.5q0 -56 -12.5 -96.5t-35.5 -66.5t-55 -39t-71 -13zM708 52q45 0 69 34.5t24 109.5q0 74 -24 109t-69 35t-69 -35 t-24 -109q0 -75 24 -109.5t69 -34.5zM209 277q-38 0 -69.5 13t-55 39t-36.5 66.5t-13 96.5q0 55 13.5 95.5t37 67t55 39.5t68.5 13q38 0 70 -13t55 -39.5t36 -67t13 -95.5q0 -56 -12.5 -96.5t-35.5 -66.5t-55 -39t-71 -13zM209 348q45 0 69 34.5t24 109.5q0 74 -24 109 t-69 35t-69 -35t-24 -109q0 -75 24 -109.5t69 -34.5zM1112 -19q-38 0 -69.5 13t-55 39t-36.5 66.5t-13 96.5q0 55 13.5 95.5t37 67t55 39.5t68.5 13q38 0 70 -13t55 -39.5t36 -67t13 -95.5q0 -56 -12.5 -96.5t-35.5 -66.5t-55 -39t-71 -13zM1112 52q45 0 69 34.5t24 109.5 q0 74 -24 109t-69 35t-69 -35t-24 -109q0 -75 24 -109.5t69 -34.5z" glyph-name="perthousand" horiz-adv-x="1322" unicode="‰"/><glyph d="M43 257l137 222h88l-126 -221l126 -225h-90z" glyph-name="guilsinglleft" horiz-adv-x="297" unicode="‹"/><glyph d="M155 254l-126 225h90l135 -224l-137 -222h-88z" glyph-name="guilsinglright" horiz-adv-x="297" unicode="›"/><glyph d="M-90 0h-85l351 691h85z" glyph-name="fraction" horiz-adv-x="87" unicode="⁄"/><glyph d="M206 277q-38 0 -69.5 13t-55 39t-36.5 66.5t-13 96.5q0 55 13.5 95.5t37 67t55 39.5t68.5 13q38 0 70 -13t55 -39.5t36 -67t13 -95.5q0 -56 -12.5 -96.5t-35.5 -66.5t-55 -39t-71 -13zM206 348q45 0 69 34.5t24 109.5q0 74 -24 109t-69 35t-69 -35t-24 -109 q0 -75 24 -109.5t69 -34.5z" glyph-name="zerosuperior" horiz-adv-x="412" unicode="⁰"/><glyph d="M45 435l199 257h69v-247h50l-10 -59h-40v-93h-72v93h-196v49zM241 445v151l-117 -151h117z" glyph-name="foursuperior" horiz-adv-x="412" unicode="⁴"/><glyph d="M131 398q8 -30 25.5 -45t53.5 -15q33 0 51.5 20.5t18.5 59.5q0 73 -71 73q-24 0 -44.5 -7t-35.5 -23h-55l20 231h229v-62h-170l-8 -102q15 8 34 14t42 6q34 0 58.5 -10t40.5 -27t23.5 -40.5t7.5 -51.5q0 -70 -37 -106t-103 -36q-134 0 -145 121h65z" glyph-name="fivesuperior" horiz-adv-x="412" unicode="⁵"/><glyph d="M291 591q-5 29 -22 42.5t-50 13.5q-85 0 -94 -134q20 17 44 26t55 9q36 0 61.5 -10t42 -27.5t24.5 -41.5t8 -52q0 -63 -40.5 -101.5t-111.5 -38.5q-46 0 -75.5 17t-47 44t-24 60t-6.5 66q0 67 12.5 113.5t34 75t51.5 41.5t66 13q63 0 94.5 -26.5t40.5 -79.5zM208 336 q38 0 59 20.5t21 58.5q0 33 -16.5 56t-58.5 23q-32 0 -56.5 -17.5t-24.5 -56.5q0 -15 4 -30t13 -27t23.5 -19.5t35.5 -7.5z" glyph-name="sixsuperior" horiz-adv-x="412" unicode="⁶"/><glyph d="M124 293q28 91 59.5 172.5t76.5 159.5h-206v67h294v-57q-48 -81 -82.5 -164t-59.5 -178h-82z" glyph-name="sevensuperior" horiz-adv-x="412" unicode="⁷"/><glyph d="M113 497q-23 13 -36 37t-13 56q0 50 34.5 83.5t107.5 33.5q74 0 108 -33.5t34 -83.5q0 -32 -14 -55t-37 -36q26 -12 45 -35t20 -62q0 -57 -39 -90.5t-117 -33.5q-79 0 -117.5 33.5t-38.5 90.5q1 35 20 59t43 36zM133 588q0 -31 17.5 -47t55.5 -16t55 16.5t17 47.5 q0 26 -16.5 43.5t-55.5 17.5t-56 -18t-17 -44zM123 401q0 -30 19.5 -48t63.5 -18q43 0 62.5 18t19.5 48q0 27 -18.5 45t-63.5 18q-46 0 -64.5 -18t-18.5 -45z" glyph-name="eightsuperior" horiz-adv-x="412" unicode="⁸"/><glyph d="M121 391q5 -33 26 -43.5t52 -10.5q45 0 65.5 33.5t20.5 103.5q-20 -21 -42.5 -30t-54.5 -9q-36 0 -61.5 10.5t-42 28.5t-24 42.5t-7.5 52.5q0 61 40 99.5t111 38.5q46 0 75 -17.5t46 -45.5t23.5 -62t6.5 -68q0 -68 -11 -113t-31.5 -73t-49.5 -39.5t-64 -11.5 q-63 0 -100 25.5t-43 88.5h65zM198 492q32 0 57 17t25 56q0 15 -4.5 29.5t-13.5 26.5t-23.5 19.5t-35.5 7.5q-38 0 -58.5 -19.5t-20.5 -57.5q0 -33 16 -56t58 -23z" glyph-name="ninesuperior" horiz-adv-x="412" unicode="⁹"/><glyph d="M206 -15q-38 0 -69.5 13t-55 39t-36.5 66.5t-13 96.5q0 55 13.5 95.5t37 67t55 39.5t68.5 13q38 0 70 -13t55 -39.5t36 -67t13 -95.5q0 -56 -12.5 -96.5t-35.5 -66.5t-55 -39t-71 -13zM206 56q45 0 69 34.5t24 109.5q0 74 -24 109t-69 35t-69 -35t-24 -109 q0 -75 24 -109.5t69 -34.5z" glyph-name="zeroinferior" horiz-adv-x="412" unicode="₀"/><glyph d="M189 321l-92 -48l-30 57l124 70h78v-399h-80v320z" glyph-name="oneinferior" horiz-adv-x="412" unicode="₁"/><glyph d="M61 59q16 14 43 35t60 49q28 24 47.5 41t32.5 33t19 32.5t6 39.5q0 27 -16 44t-46 17q-34 0 -53.5 -16t-29.5 -53l-71 11q6 23 16.5 45t28 39.5t44.5 28t66 10.5q35 0 61 -9.5t43.5 -26t26 -38.5t8.5 -47t-5.5 -46t-18.5 -41.5t-34 -42t-52 -47.5q-14 -12 -30 -24.5 t-34 -26.5h179l-11 -65h-280v58z" glyph-name="twoinferior" horiz-adv-x="412" unicode="₂"/><glyph d="M121 120q5 -35 23.5 -54.5t60.5 -19.5q77 0 77 68q0 35 -20 48.5t-52 13.5h-47v62h48q28 0 46 14.5t18 45.5q0 57 -70 57q-36 0 -54.5 -16t-27.5 -50l-68 11q4 21 14.5 41.5t28 37t44 26.5t63.5 10q72 0 107 -31t35 -79q0 -32 -13 -53.5t-38 -38.5q33 -15 46.5 -40.5 t13.5 -57.5q0 -57 -35.5 -93.5t-113.5 -36.5q-45 0 -74 13t-46.5 33.5t-25 44t-8.5 44.5h68z" glyph-name="threeinferior" horiz-adv-x="412" unicode="₃"/><glyph d="M43 143l199 257h69v-247h50l-10 -59h-40v-93h-72v93h-196v49zM239 153v151l-117 -151h117z" glyph-name="fourinferior" horiz-adv-x="412" unicode="₄"/><glyph d="M131 106q8 -30 25.5 -45t53.5 -15q33 0 51.5 20.5t18.5 59.5q0 73 -71 73q-24 0 -44.5 -7t-35.5 -23h-55l20 231h229v-62h-170l-8 -102q15 8 34 14t42 6q34 0 58.5 -10t40.5 -27t23.5 -40.5t7.5 -51.5q0 -70 -37 -106t-103 -36q-134 0 -145 121h65z" glyph-name="fiveinferior" horiz-adv-x="412" unicode="₅"/><glyph d="M291 299q-5 29 -22 42.5t-50 13.5q-85 0 -94 -134q20 17 44 26t55 9q36 0 61.5 -10t42 -27.5t24.5 -41.5t8 -52q0 -63 -40.5 -101.5t-111.5 -38.5q-46 0 -75.5 17t-47 44t-24 60t-6.5 66q0 67 12.5 113.5t34 75t51.5 41.5t66 13q63 0 94.5 -26.5t40.5 -79.5zM208 44 q38 0 59 20.5t21 58.5q0 33 -16.5 56t-58.5 23q-32 0 -56.5 -17.5t-24.5 -56.5q0 -15 4 -30t13 -27t23.5 -19.5t35.5 -7.5z" glyph-name="sixinferior" horiz-adv-x="412" unicode="₆"/><glyph d="M124 1q28 91 59.5 172.5t76.5 159.5h-206v67h294v-57q-48 -81 -82.5 -164t-59.5 -178h-82z" glyph-name="seveninferior" horiz-adv-x="412" unicode="₇"/><glyph d="M113 205q-23 13 -36 37t-13 56q0 50 34.5 83.5t107.5 33.5q74 0 108 -33.5t34 -83.5q0 -32 -14 -55t-37 -36q26 -12 45 -35t20 -62q0 -57 -39 -90.5t-117 -33.5q-79 0 -117.5 33.5t-38.5 90.5q1 35 20 59t43 36zM133 296q0 -31 17.5 -47t55.5 -16t55 16.5t17 47.5 q0 26 -16.5 43.5t-55.5 17.5t-56 -18t-17 -44zM123 109q0 -30 19.5 -48t63.5 -18q43 0 62.5 18t19.5 48q0 27 -18.5 45t-63.5 18q-46 0 -64.5 -18t-18.5 -45z" glyph-name="eightinferior" horiz-adv-x="412" unicode="₈"/><glyph d="M121 99q5 -33 26 -43.5t52 -10.5q45 0 65.5 33.5t20.5 103.5q-20 -21 -42.5 -30t-54.5 -9q-36 0 -61.5 10.5t-42 28.5t-24 42.5t-7.5 52.5q0 61 40 99.5t111 38.5q46 0 75 -17.5t46 -45.5t23.5 -62t6.5 -68q0 -68 -11 -113t-31.5 -73t-49.5 -39.5t-64 -11.5 q-63 0 -100 25.5t-43 88.5h65zM198 200q32 0 57 17t25 56q0 15 -4.5 29.5t-13.5 26.5t-23.5 19.5t-35.5 7.5q-38 0 -58.5 -19.5t-20.5 -57.5q0 -33 16 -56t58 -23z" glyph-name="nineinferior" horiz-adv-x="412" unicode="₉"/><glyph d="M33 298h55q-1 10 -1 20.5v21.5v26.5t1 25.5h-68l13 64h63q10 58 31 105t52.5 80t73.5 51t93 18q52 0 90 -12t64.5 -35.5t43 -59t25.5 -82.5l-79 -14q-17 71 -50 99t-97 28q-33 0 -59.5 -13.5t-46 -37.5t-33 -56.5t-20.5 -70.5h233l-13 -64h-228q-1 -13 -1.5 -25.5 t-0.5 -25.5v-21.5t1 -21.5h216l-14 -65h-194q6 -35 18 -66.5t31 -55.5t46 -38.5t65 -14.5q39 0 65.5 9t44 26.5t27 44t14.5 61.5h84q-11 -106 -67.5 -161.5t-168.5 -55.5q-108 0 -169.5 65t-78.5 186h-74z" glyph-name="Euro" unicode="€"/><glyph d="M253 159l-115 -72l-32 50l147 93v103l-115 -72l-32 50l147 93v208h-210v79h506v-79h-209v-154l112 71l32 -50l-144 -92v-104l112 71l32 -50l-144 -92v-212h-87v159z" glyph-name="uni20AE" unicode="₮"/><glyph d="M544 167q-10 -96 -72 -140.5t-169 -44.5q-62 0 -105.5 16.5t-70.5 43.5t-39.5 60.5t-12.5 68.5q0 34 6 63h-40v56h64q18 29 55.5 47.5t78.5 30.5t78 21t54 19h-330v56h386q13 25 13 63q0 46 -33 76t-96 30q-39 0 -64 -8t-41.5 -21.5t-26 -33t-15.5 -41.5l-82 14 q14 75 73 121t157 46t154.5 -48.5t56.5 -133.5q0 -36 -6 -64h43v-56h-68q-21 -30 -59 -47.5t-78.5 -28.5t-77.5 -20t-56 -22h339v-56h-390q-4 -13 -7 -25.5t-3 -25.5q0 -53 35.5 -88.5t111.5 -35.5q74 0 108 26t42 82h87z" glyph-name="uni20B4" unicode="₴"/><glyph d="M29 194q21 20 41.5 40.5l39.5 39.5v256q0 51 11 88t30 61t44 35.5t53 11.5q58 0 86 -38.5t28 -104.5q0 -79 -42.5 -159.5t-126.5 -170.5v-111q0 -25 6 -42t16.5 -27.5t23 -15.5t26.5 -5q43 0 83 40l36 -44q-29 -35 -64 -50.5t-74 -15.5q-61 0 -96 34t-39 100q-1 24 -1 42 v41q-12 -13 -24.5 -24t-26.5 -25zM193 342q50 61 77.5 123t27.5 115q0 38 -12 59.5t-37 21.5q-10 0 -20 -6t-18 -20t-13 -37.5t-5 -58.5v-197z" glyph-name="afii61289" horiz-adv-x="412" unicode="ℓ"/><glyph d="M170 714l347 -563v563h89v-714h-90l-348 562v-562h-89v714h91zM866 279q-38 0 -69.5 13t-55 39t-36.5 66.5t-13 96.5q0 55 13.5 95.5t37 67t55 39.5t68.5 13q38 0 70 -13t55 -39.5t36 -67t13 -95.5q0 -56 -12.5 -96.5t-35.5 -66.5t-55 -39t-71 -13zM866 350q45 0 69 34.5 t24 109.5q0 74 -24 109t-69 35t-69 -35t-24 -109q0 -75 24 -109.5t69 -34.5z" glyph-name="afii61352" horiz-adv-x="1075" unicode="№"/><glyph d="M149 654h-132v60h332v-60h-132v-340h-68v340zM407 714h84l129 -322l131 322h83v-400h-61v301l-125 -301h-57l-123 300v-300h-61v400z" glyph-name="trademark" horiz-adv-x="906" unicode="™"/><glyph d="M189 78q-54 51 -88.5 125t-34.5 171q0 88 22.5 155t63.5 112t97.5 68t124.5 23t124 -22.5t96 -66.5t62 -110.5t22 -153.5q0 -97 -34.5 -172t-92.5 -129h154l-13 -78h-251v69q78 53 110 129.5t32 177.5q0 65 -12.5 117t-38.5 88t-65 55t-93 19q-56 0 -96 -19t-66.5 -55 t-39 -88t-12.5 -117q0 -102 33.5 -177.5t108.5 -129.5v-69h-261v78h148z" glyph-name="uni2126" horiz-adv-x="743" unicode="Ω"/><glyph d="M199 139q0 -13 9 -22q48 -51 111 -79.5t137 -28.5q80 0 146 33t115 87h58q-53 -65 -138 -102.5t-183 -37.5q-84 0 -157.5 28.5t-128.5 77.5t-86.5 115.5t-31.5 141.5t31.5 141.5t86.5 116t128.5 78.5t157.5 29t158.5 -29t129.5 -78.5t87 -116t32 -141.5v-10h-657 q-5 0 -5 -4v-199zM707 362q4 0 4 7v199q0 13 -9 24q-48 48 -111 75.5t-135 27.5t-135.5 -29.5t-111.5 -77.5q-5 -4 -7.5 -10.5t-2.5 -13.5v-195q0 -7 5 -7h503z" glyph-name="estimated" horiz-adv-x="911" unicode="℮"/><glyph d="M273 0h-85l351 691h85zM154 613l-92 -48l-30 57l124 70h78v-399h-80v320zM620 120q5 -35 23.5 -54.5t60.5 -19.5q77 0 77 68q0 35 -20 48.5t-52 13.5h-47v62h48q28 0 46 14.5t18 45.5q0 57 -70 57q-36 0 -54.5 -16t-27.5 -50l-68 11q4 21 14.5 41.5t28 37t44 26.5 t63.5 10q72 0 107 -31t35 -79q0 -32 -13 -53.5t-38 -38.5q33 -15 46.5 -40.5t13.5 -57.5q0 -57 -35.5 -93.5t-113.5 -36.5q-45 0 -74 13t-46.5 33.5t-25 44t-8.5 44.5h68z" glyph-name="onethird" horiz-adv-x="911" unicode="⅓"/><glyph d="M330 0h-85l351 691h85zM61 351q16 14 43 35t60 49q28 24 47.5 41t32.5 33t19 32.5t6 39.5q0 27 -16 44t-46 17q-34 0 -53.5 -16t-29.5 -53l-71 11q6 23 16.5 45t28 39.5t44.5 28t66 10.5q35 0 61 -9.5t43.5 -26t26 -38.5t8.5 -47t-5.5 -46t-18.5 -41.5t-34 -42t-52 -47.5 q-14 -12 -30 -24.5t-34 -26.5h179l-11 -65h-280v58zM620 120q5 -35 23.5 -54.5t60.5 -19.5q77 0 77 68q0 35 -20 48.5t-52 13.5h-47v62h48q28 0 46 14.5t18 45.5q0 57 -70 57q-36 0 -54.5 -16t-27.5 -50l-68 11q4 21 14.5 41.5t28 37t44 26.5t63.5 10q72 0 107 -31t35 -79 q0 -32 -13 -53.5t-38 -38.5q33 -15 46.5 -40.5t13.5 -57.5q0 -57 -35.5 -93.5t-113.5 -36.5q-45 0 -74 13t-46.5 33.5t-25 44t-8.5 44.5h68z" glyph-name="twothirds" horiz-adv-x="911" unicode="⅔"/><glyph d="M275 0h-85l351 691h85zM154 613l-92 -48l-30 57l124 70h78v-399h-80v320zM632 106q8 -30 25.5 -45t53.5 -15q33 0 51.5 20.5t18.5 59.5q0 73 -71 73q-24 0 -44.5 -7t-35.5 -23h-55l20 231h229v-62h-170l-8 -102q15 8 34 14t42 6q34 0 58.5 -10t40.5 -27t23.5 -40.5 t7.5 -51.5q0 -70 -37 -106t-103 -36q-134 0 -145 121h65z" glyph-name="onefifth" horiz-adv-x="911" unicode="⅕"/><glyph d="M329 0h-85l351 691h85zM61 351q16 14 43 35t60 49q28 24 47.5 41t32.5 33t19 32.5t6 39.5q0 27 -16 44t-46 17q-34 0 -53.5 -16t-29.5 -53l-71 11q6 23 16.5 45t28 39.5t44.5 28t66 10.5q35 0 61 -9.5t43.5 -26t26 -38.5t8.5 -47t-5.5 -46t-18.5 -41.5t-34 -42t-52 -47.5 q-14 -12 -30 -24.5t-34 -26.5h179l-11 -65h-280v58zM632 106q8 -30 25.5 -45t53.5 -15q33 0 51.5 20.5t18.5 59.5q0 73 -71 73q-24 0 -44.5 -7t-35.5 -23h-55l20 231h229v-62h-170l-8 -102q15 8 34 14t42 6q34 0 58.5 -10t40.5 -27t23.5 -40.5t7.5 -51.5q0 -70 -37 -106 t-103 -36q-134 0 -145 121h65z" glyph-name="twofifths" horiz-adv-x="911" unicode="⅖"/><glyph d="M321 0h-85l351 691h85zM632 106q8 -30 25.5 -45t53.5 -15q33 0 51.5 20.5t18.5 59.5q0 73 -71 73q-24 0 -44.5 -7t-35.5 -23h-55l20 231h229v-62h-170l-8 -102q15 8 34 14t42 6q34 0 58.5 -10t40.5 -27t23.5 -40.5t7.5 -51.5q0 -70 -37 -106t-103 -36q-134 0 -145 121h65 zM121 412q5 -35 23.5 -54.5t60.5 -19.5q77 0 77 68q0 35 -20 48.5t-52 13.5h-47v62h48q28 0 46 14.5t18 45.5q0 57 -70 57q-36 0 -54.5 -16t-27.5 -50l-68 11q4 21 14.5 41.5t28 37t44 26.5t63.5 10q72 0 107 -31t35 -79q0 -32 -13 -53.5t-38 -38.5q33 -15 46.5 -40.5 t13.5 -57.5q0 -57 -35.5 -93.5t-113.5 -36.5q-45 0 -74 13t-46.5 33.5t-25 44t-8.5 44.5h68z" glyph-name="threefifths" horiz-adv-x="911" unicode="⅗"/><glyph d="M323 0h-85l351 691h85zM632 106q8 -30 25.5 -45t53.5 -15q33 0 51.5 20.5t18.5 59.5q0 73 -71 73q-24 0 -44.5 -7t-35.5 -23h-55l20 231h229v-62h-170l-8 -102q15 8 34 14t42 6q34 0 58.5 -10t40.5 -27t23.5 -40.5t7.5 -51.5q0 -70 -37 -106t-103 -36q-134 0 -145 121h65 zM45 435l199 257h69v-247h50l-10 -59h-40v-93h-72v93h-196v49zM241 445v151l-117 -151h117z" glyph-name="fourfifths" horiz-adv-x="911" unicode="⅘"/></font>
</defs>
</svg>
